imdb
rating

5.3
Iron Man: Rise of Technovore

Iron Man: Rise of Technovore (2013)

Action, Animation, Fantasy

Full description

Iron Man Rise Of Technovore 2013 BRRip 720p x264 AAC - PRiSTiNE [P2PDL]

Size 531.45 MB   0 seeders     Added 2013-04-19 09:47:35

Stream torrent
Starting‥ You need BitLord! Get it from BitLord.com
To download or stream you need BitLord. Visit them at BitLord.com
_________________________  Visit us at _________________________
  
http://p2pdl.com  ____________________________  http://p2pdl.com


Iron Man Rise Of Technovore 2013 BRRip 720p x264 AAC - PRiSTiNE [P2PDL]

Genre: Animation | Action | Sci-Fi
Plot: Iron Man is framed by a technological terrorist, and breaks 
out to stop him and clear his name.
Director: Hiroshi Hamazaki
Stars: Norman Reedus, Matthew Mercer, Eric Bauza
Rated: Rated PG-13 for some intense sequences of violence and action

Info: 
http://www.imdb.com/title/tt2654124/


General
Complete name                  : Iron Man Rise Of Technovore 2013 BRRip 720p x264 AAC - PRiSTiNE.mp4
Format                         : MPEG-4
Format profile                 : Base Media
File size                      : 505 MiB
Duration                       : 1h 28mn
Overall bit rate mode          : Variable
Overall bit rate               : 801 Kbps

Video
Format                         : AVC
Format/Info                    : Advanced Video Codec
Format profile                 : High 10@L4.1
Bit rate                       : 719 Kbps
Width                          : 1 280 pixels
Height                         : 720 pixels
Display aspect ratio           : 16:9
Frame rate mode                : Constant
Frame rate                     : 23.976 fps
Bit depth                      : 10 bits
Stream size                    : 453 MiB (90%)
Writing library                : x264 core 130 r2273 b3065e6

Audio
Format                         : AAC
Bit rate mode                  : Variable
Bit rate                       : 79.7 Kbps
Channel(s)                     : 2 channels
Channel positions              : Front: L R
Sampling rate                  : 48.0 KHz / 24.0 KHz
Stream size                    : 50.2 MiB (10%)

Subtitle                       : Yes (English)
Source                         : 720p.BluRay.x264-UNTOUCHABLES (Thanks)

Screens:
 
image 
image 
image 
image 
image 
image

----------------------------------------------------------------------------------------------------


Encoded using revolutionary 10bit encoding, which enables us to provide you more crispier 
and sharper images at small sizes, just make sure you follow our instructions without a fault.
Recommend to you to use latest version of VLC player. Install K-Lite Codec Pack or shark007 codecs
in case of any kind of problem in playback (For non-VLC Media Player users). Alternatively, install
Core AVC codecs, the fastest decoder that there is coupled with Community Center Codec Pack and play
on Windows Media Player Classic. Check sample to be sure.
Enjoy!

Encoder Notes:Looking For Early Access To Anything You Can Provide DVDScr, R5, DVDR, BluRay, Direct
Audio, Music Releases and Seedboxes. We require dedicated servers, so as to do more 
and fast releases of movies.
If You Got anything to offer please contact us at "prg@hush.com".

Face book Fan Page:   
http://www.fb.me/p2pdl		
Iron Man Rise Of Technovore 2013 BRRip 720p x264 AAC - PRiSTiNE [P2PDL]/Iron Man Rise Of Technovore 2013 BRRip 720p x264 AAC - PRiSTiNE/Iron Man Rise Of Technovore 2013 BRRip 720p x264 AAC - PRiSTiNE.mp4 529.253 MB
Iron Man Rise Of Technovore 2013 BRRip 720p x264 AAC - PRiSTiNE [P2PDL]/Sample.mp4 2.105 MB
Iron Man Rise Of Technovore 2013 BRRip 720p x264 AAC - PRiSTiNE [P2PDL]/Iron Man Rise Of Technovore 2013 BRRip 720p x264 AAC - PRiSTiNE/Iron Man Rise Of Technovore 2013 BRRip 720p x264 AAC - PRiSTiNE.srt 86.167 KB
Gathering some info...

Register and log in Isohunt and see no captcha anymore!

4000 symbols left
Hash 143110096f9dd7e89d17401aa44cc5b4e6e9d8c6

Related torrents for "Iron Man Rise Of Technovore 2013 BRRip 720p x264 AAC - PRiSTiNE [P2PDL]"

Torrent search:

x264 hd bd 2013