imdb
rating

4.7
It's in the Blood

It's in the Blood (2012)

Drama, Horror, Thriller

Full description

It's.In.The.Blood.2012.DVDRiP.AC3-5.1.XviD-AXED

Size 1.489 GB   0 seeders     Added 2013-04-19 13:46:36

Stream torrent
Starting‥ You need BitLord! Get it from BitLord.com
To download or stream you need BitLord. Visit them at BitLord.com
 http://www.imdb.com/title/tt2072134/


When a father and son become stranded in the wild, they must confront the horrors of their past to escape with their lives. 



Director:
 Scooter Downey 

Writers:
 Scooter Downey, Sean Elliot 

Stars:
 Lance Henriksen, Sean Elliot, Rose Sirna 

Genres:
  Drama |  Horror |  Thriller 

Country:
 USA 

Language:
 English 



Media Info:

 General
 Complete name                    : It's.In.The.Blood.2012.DVDRiP.AC3-5.1.XviD-AXED.avi
 Format                           : AVI
 Format/Info                      : Audio Video Interleave
 File size                        : 1.37 GiB
 Duration                         : 1h 20mn
 Overall bit rate                 : 2 452 Kbps

 Video
 ID                               : 0
 Format                           : MPEG-4 Visual
 Format profile                   : Advanced Simple@L5
 Format settings, BVOP            : 1
 Format settings, QPel            : No
 Format settings, GMC             : No warppoints
 Format settings, Matrix          : Default (H.263)
 Codec ID                         : XVID
 Codec ID/Hint                    : XviD
 Duration                         : 1h 20mn
 Bit rate                         : 2 124 Kbps
 Width                            : 720 pixels
 Height                           : 400 pixels
 Display aspect ratio             : 16:9
 Frame rate                       : 23.976 fps
 Color space                      : YUV
 Chroma subsampling               : 4:2:0
 Bit depth                        : 8 bits
 Scan type                        : Progressive
 Compression mode                 : Lossy
 Bits/(Pixel*Frame)               : 0.308
 Stream size                      : 1.19 GiB (87%)
 Writing library                  : XviD 1.2.1 (UTC 2008-12-04)

 Audio
 ID                               : 1
 Format                           : AC-3
 Format/Info                      : Audio Coding 3
 Mode extension                   : CM (complete main)
 Codec ID                         : 2000
 Duration                         : 1h 20mn
 Bit rate mode                    : Constant
 Bit rate                         : 320 Kbps
 Channel(s)                       : 5 channels
 Channel positions                : Front: L C R, Side: L R
 Sampling rate                    : 48.0 KHz
 Bit depth                        : 16 bits
 Compression mode                 : Lossy
 Stream size                      : 183 MiB (13%)
 Alignment                        : Aligned on interleaves
 Interleave, duration             : 64 ms (1.53 video frames)
 Interleave, preload duration     : 192 ms
 Title                            : VTS_02_1 T80 3_2ch 320Kbps DELAY 0ms



 SOURCE: 
 Retail DVD

 NOTES: 
 This little indie horror flick with Lance Henriksen was just released. I haven't seen it, but I've heard good things. For some reason the audio reads as 5 channel instead of 6, but the audio used on this release is a direct copy from the DVD, not touched in any way, so unfortunately it seems to be an issue with the source.

 AXED! We do this better.




    	image
    	image
    	image
    	image		
It's.In.The.Blood.2012.DVDRiP.AC3-5.1.XviD-AXED/It's.In.The.Blood.2012.DVDRiP.AC3-5.1.XviD-AXED.avi 1.473 GB
It's.In.The.Blood.2012.DVDRiP.AC3-5.1.XviD-AXED/It's.In.The.Blood.2012.DVDRiP.AC3-5.1.XviD-AXED.nfo 3.811 KB
It's.In.The.Blood.2012.DVDRiP.AC3-5.1.XviD-AXED/SAMPLE.avi 15.753 MB
Gathering some info...

Register and log in Isohunt and see no captcha anymore!

4000 symbols left
Hash 60c6ce6a6fb9db1f72f1540d039c0db036b8dbfa

Related torrents for "It's.In.The.Blood.2012.DVDRiP.AC3-5.1.XviD-AXED"

Torrent search:

dvdrip 2012