imdb
rating

5.1
A Haunted House

A Haunted House (2013)

Comedy, Horror

Full description
quality   dvdrip h264 hd cam screener

A.Haunted.House.2013.BRRip.XviD.AC3-MiLLENiUM

Size 1.395 GB   0 seeders     Added 2013-04-19 18:31:33

Stream torrent
Starting‥ You need BitLord! Get it from BitLord.com
To download or stream you need BitLord. Visit them at BitLord.com
--------------------------------------------
 
http://www.imdb.com/title/tt2243537/

Comedy | Horror  -  11 January 2013 (USA)
4,9 Your rating:    -/10   Ratings: 4,9/10 from 6 820 users   Metascore: 20/100 
Reviews: 46 user | 73 critic | 14 from Metacritic.com
Malcolm and Kisha move into their dream home, but soon learn a demon also resides there. When Kisha becomes possessed, Malcolm - determined to keep his sex life on track - turns to a priest, a psychic, and a team of ghost-busters for help.

SUBTiTLES.......: Bulgarian

Language : English

Screens: 
http://imgsure.com/?p=360738 
http://imgsure.com/?p=694337

Format                           : AVI
Format/Info                      : Audio Video Interleave
File size                        : 1.30 GiB
Duration                         : 1h 26mn
Overall bit rate                 : 2 152 Kbps
Writing application              : VirtualDubMod 1.5.10.2 (build 2540/release)
Writing library                  : VirtualDubMod build 2540/release

Video
ID                               : 0
Format                           : MPEG-4 Visual
Format profile                   : Advanced Simple@L5
Format settings, BVOP            : 2
Format settings, QPel            : No
Format settings, GMC             : No warppoints
Format settings, Matrix          : Default (H.263)
Muxing mode                      : Packed bitstream
Codec ID                         : XVID
Codec ID/Hint                    : XviD
Duration                         : 1h 26mn
Bit rate                         : 1 695 Kbps
Width                            : 720 pixels
Height                           : 384 pixels
Display aspect ratio             : 1.875
Frame rate                       : 23.976 fps
Color space                      : YUV
Chroma subsampling               : 4:2:0
Bit depth                        : 8 bits
Scan type                        : Progressive
Compression mode                 : Lossy
Bits/(Pixel*Frame)               : 0.256
Stream size                      : 1.02 GiB (79%)
Writing library                  : XviD 64

Audio
ID                               : 1
Format                           : AC-3
Format/Info                      : Audio Coding 3
Mode extension                   : CM (complete main)
Codec ID                         : 2000
Duration                         : 1h 26mn
Bit rate mode                    : Constant
Bit rate                         : 448 Kbps
Channel(s)                       : 6 channels
Channel positions                : Front: L C R, Side: L R, LFE
Sampling rate                    : 48.0 KHz
Bit depth                        : 16 bits
Compression mode                 : Lossy
Stream size                      : 277 MiB (21%)
Alignment                        : Split accross interleaves
Interleave, duration             : 42 ms (1.00 video frame)
Interleave, preload duration     : 500 ms

--------------------------------------------

More at   
http://publichash.com/

--------------------------------------------			
A.Haunted.House.2013.BRRip.XviD.AC3-MiLLENiUM/A.Haunted.House.2013.BRRip.XviD.AC3-MiLLENiUM.avi 1.395 GB
A.Haunted.House.2013.BRRip.XviD.AC3-MiLLENiUM/A.Haunted.House.2013.BRRip.XviD.AC3-MiLLENiUM.nfo 2.434 KB
A.Haunted.House.2013.BRRip.XviD.AC3-MiLLENiUM/A.Haunted.House.2013.BRRip.XviD.AC3-MiLLENiUM.srt 94.71 KB
Gathering some info...

Register and log in Isohunt and see no captcha anymore!

4000 symbols left
Hash 673cd731a2fd5696554d1c2764678ba155320429

Related torrents for "A.Haunted.House.2013.BRRip.XviD.AC3-MiLLENiUM"

Torrent search:

bd 2013