imdb
rating

5.9
The Host

The Host (2013)

Action, Adventure, Science Fiction, Thriller, Romance

Full description

[ www.UsaBit.com ] - The Host 2013 Cropped HDRIP Xvid-BHRG

Size 1.026 GB   0 seeders     Added 2013-04-20 01:16:36

Stream torrent
Starting‥ You need BitLord! Get it from BitLord.com
To download or stream you need BitLord. Visit them at BitLord.com
File size                        : 940 MiB
Duration                         : 2h 10mn
Overall bit rate                 : 1 006 Kbps
Writing application              : AVI-Mux GUI 1.17.8.3, Feb 16 201019:42:50

Video
ID                               : 0
Format                           : MPEG-4 Visual
Format profile                   : Advanced Simple@L5
Format settings, BVOP            : 2
Format settings, QPel            : No
Format settings, GMC             : No warppoints
Format settings, Matrix          : Default (H.263)
Codec ID                         : XVID
Codec ID/Hint                    : XviD
Duration                         : 2h 10mn
Bit rate                         : 869 Kbps
Width                            : 720 pixels
Height                           : 272 pixels
Display aspect ratio             : 2.647
Frame rate                       : 29.970 fps
Color space                      : YUV
Chroma subsampling               : 4:2:0
Bit depth                        : 8 bits
Scan type                        : Progressive
Compression mode                 : Lossy
Bits/(Pixel*Frame)               : 0.148
Stream size                      : 812 MiB (86%)
Writing library                  : XviD 1.2.1 (UTC 2008-12-04)

Audio
ID                               : 1
Format                           : MPEG Audio
Format version                   : Version 1
Format profile                   : Layer 3
Mode                             : Joint stereo
Codec ID                         : 55
Codec ID/Hint                    : MP3
Duration                         : 2h 10mn
Bit rate mode                    : Constant
Bit rate                         : 128 Kbps
Channel(s)                       : 2 channels
Sampling rate                    : 44.1 KHz
Compression mode                 : Lossy
Stream size                      : 119 MiB (13%)
Alignment                        : Aligned on interleaves
Interleave, duration             : 26 ms (0.78 video frame)
Interleave, preload duration     : 182 ms
Title                            : The Host Cleaned

IMDB[url] http://www.imdb.com/title/tt1517260/[/url]

Source >>>>>>The Host 2013 720p KOR HDRip H-KTH /...........Thanks

Sample provided= 3 off
1.Random sample as per norm.

(2/3).....ViP3R/Comparison Audio BHRG  approx  timeline taken!

Worked on audio and video just added script as nice to begin with!

 
http://imgbox.com/g/1HayXL7UBA		
[ www.UsaBit.com ] - The Host 2013 Cropped HDRIP Xvid-BHRG/UsaBit.com.txt 0 B
[ www.UsaBit.com ] - The Host 2013 Cropped HDRIP Xvid-BHRG/The.Host.2013.HDRip.XviD-ViP3R(Sample).avi 11.521 MB
[ www.UsaBit.com ] - The Host 2013 Cropped HDRIP Xvid-BHRG/The Host 2013 Cropped HDRIP Xvid-BHRG RandomSample.avi 18.239 MB
Gathering some info...

Register and log in Isohunt and see no captcha anymore!

4000 symbols left
Hash 0a05fb015a36e0cf2b31a236253783fb4c29afa7

Related torrents for "[ www.UsaBit.com ] - The Host 2013 Cropped HDRIP Xvid-BHRG"

Torrent search:

hd 2013