EK THI Daayan-2013 MASTER KING TEAM ICTV.mpg Verified

Size 711.111 MB   0 seeders     Added 2013-04-20 01:35:37

Stream torrent
Starting‚Ä• You need BitLord! Get it from 1BitLord.com
To download or stream you need BitLord. Visit them at BitLord.com
 image 
image 
image 
image 
image 
image

Media Info - 
Video
ID : 224 (0xE0)
Format : MPEG Video
Format version : Version 1
Format settings, BVOP : Yes
Format settings, Matrix : Custom
Duration : 2h 6mn
Bit rate mode : Variable
Bit rate : 672 Kbps
Width : 352 pixels
Height : 288 pixels
Display aspect ratio : 4:3
Frame rate : 25.000 fps
Standard : PAL
Color space : YUV
Bit depth : 8 bits
Scan type : Progressive
Compression mode : Lossy
Bits/(Pixel*Frame) : 0.265
Stream size : 607 MiB (89%)
Writing library : TMPGEnc Video Mastering Works 5 Version. 5.0.5.32

Audio
ID : 192 (0xC0)
Format : MPEG Audio
Format version : Version 1
Format profile : Layer 2
Duration : 2h 6mn
Bit rate mode : Constant
Bit rate : 64.0 Kbps
Channel(s) : 2 channels
Sampling rate : 48.0 KHz
Compression mode : Lossy
Stream size : 58.1 MiB (9%)

Ripper : Master King

Seeding 24x7... Extreme Seeding...


Enjoy!
		
EK THI Daayan-2013 MASTER KING TEAM ICTV.mpg 711.111 MB
Gathering some info...

Register and log in Isohunt and see no captcha anymore!

4000 symbols left
Hash 81625cc27ddde7cc4f5fa793cb0f029bb5c0ae6d