Canakkale.Yolun.Sonu.2013.DVDSCR.XviD-HDTURK

Size 735.417 MB   37 seeders     Added 2013-04-20 03:01:34

Stream torrent
Starting‥ You need BitLord! Get it from 1BitLord.com
To download or stream you need BitLord. Visit them at BitLord.com
--------------------------------------------
 
http://www.imdb.com/title/tt2667550/

Action | Drama | History  -  15 March 2013 (Turkey)
7,7 Your rating:    -/10   Ratings: 7,7/10 from 569 users   

SUBTiTLES.......: Bulgarian

Language : Turkish

Screens: 
http://imgsure.com/?p=300873 
http://imgsure.com/?p=103490

Format                           : AVI
Format/Info                      : Audio Video Interleave
File size                        : 701 MiB
Duration                         : 1h 40mn
Overall bit rate                 : 971 Kbps
Movie name                       : Canakkale Yolun Sonu (2013) DVDSCRip XviD-HDTURK
Writing application              : VirtualDubMod 1.5.10.2 (build 2542/release)
Writing library                  : VirtualDubMod build 2542/release

Video
ID                               : 0
Format                           : MPEG-4 Visual
Format profile                   : Advanced Simple@L5
Format settings, BVOP            : 4
Format settings, QPel            : No
Format settings, GMC             : No warppoints
Format settings, Matrix          : Default (MPEG)
Codec ID                         : XVID
Codec ID/Hint                    : XviD
Duration                         : 1h 40mn
Bit rate                         : 834 Kbps
Width                            : 640 pixels
Height                           : 352 pixels
Display aspect ratio             : 16:9
Frame rate                       : 23.976 fps
Color space                      : YUV
Chroma subsampling               : 4:2:0
Bit depth                        : 8 bits
Scan type                        : Progressive
Compression mode                 : Lossy
Bits/(Pixel*Frame)               : 0.154
Stream size                      : 602 MiB (86%)
Writing library                  : XviD 1.2.1 (UTC 2008-12-04)

Audio
ID                               : 1
Format                           : MPEG Audio
Format version                   : Version 1
Format profile                   : Layer 3
Mode                             : Joint stereo
Mode extension                   : MS Stereo
Codec ID                         : 55
Codec ID/Hint                    : MP3
Duration                         : 1h 40mn
Bit rate mode                    : Constant
Bit rate                         : 128 Kbps
Channel(s)                       : 2 channels
Sampling rate                    : 48.0 KHz
Compression mode                 : Lossy
Stream size                      : 92.4 MiB (13%)
Alignment                        : Aligned on interleaves
Interleave, duration             : 42 ms (1.00 video frame)
Interleave, preload duration     : 504 ms

--------------------------------------------

More at   
http://publichash.com/

--------------------------------------------			
Canakkale.Yolun.Sonu.2013.DVDSCR.XviD-HDTURK/Canakkale.Yolun.Sonu.2013.DVDSCR.XviD-HDTURK.avi 735.363 MB
Canakkale.Yolun.Sonu.2013.DVDSCR.XviD-HDTURK/Canakkale.Yolun.Sonu.2013.DVDSCR.XviD-HDTURK.nfo 2.539 KB
Canakkale.Yolun.Sonu.2013.DVDSCR.XviD-HDTURK/Canakkale.Yolun.Sonu.2013.DVDSCR.XviD-HDTURK.srt 51.658 KB
Gathering some info...

Register and log in Isohunt and see no captcha anymore!

4000 symbols left
Hash 9898d2e6b81822023523b10c3afb956878004154