imdb
rating

2.8
Arachnoquake

Arachnoquake (2012)

Science Fiction

Full description
quality   hdtv x264 hd bd dvdrip dvdr h264

Arachnoquake.2012.BRRip.XviD-MeRCuRY

Size 731.594 MB   0 seeders     Added 2013-04-20 05:01:34

Stream torrent
Starting‥ You need BitLord! Get it from 1BitLord.com
To download or stream you need BitLord. Visit them at BitLord.com
--------------------------------------------
 
http://www.imdb.com/title/tt2151543/

86 min  -  Sci-Fi  -  23 June 2012 (USA)
3,0 Your rating:    -/10   Ratings: 3,0/10 from 712 users   
Reviews: 11 user | 22 critic

SUBTiTLES.......: Bulgarian

Language : English

Screens: 
http://imgsure.com/?p=273665 
http://imgsure.com/?p=400917

Format                           : AVI
Format/Info                      : Audio Video Interleave
File size                        : 698 MiB
Duration                         : 1h 27mn
Overall bit rate                 : 1 120 Kbps

Video
ID                               : 0
Format                           : MPEG-4 Visual
Format profile                   : Advanced Simple@L5
Format settings, BVOP            : 2
Format settings, QPel            : No
Format settings, GMC             : No warppoints
Format settings, Matrix          : Default (H.263)
Codec ID                         : XVID
Codec ID/Hint                    : XviD
Duration                         : 1h 27mn
Bit rate                         : 987 Kbps
Width                            : 640 pixels
Height                           : 352 pixels
Display aspect ratio             : 16:9
Frame rate                       : 23.976 fps
Color space                      : YUV
Chroma subsampling               : 4:2:0
Bit depth                        : 8 bits
Scan type                        : Progressive
Compression mode                 : Lossy
Bits/(Pixel*Frame)               : 0.183
Stream size                      : 614 MiB (88%)
Writing library                  : XviD 1.2.1 (UTC 2008-12-04)

Audio
ID                               : 1
Format                           : MPEG Audio
Format version                   : Version 1
Format profile                   : Layer 3
Mode                             : Joint stereo
Mode extension                   : MS Stereo
Codec ID                         : 55
Codec ID/Hint                    : MP3
Duration                         : 1h 27mn
Bit rate mode                    : Constant
Bit rate                         : 128 Kbps
Channel(s)                       : 2 channels
Sampling rate                    : 48.0 KHz
Compression mode                 : Lossy
Stream size                      : 79.7 MiB (11%)
Alignment                        : Aligned on interleaves
Interleave, duration             : 167 ms (4.00 video frames)
Interleave, preload duration     : 216 ms
Title                            : arachnoquake720-son
Writing library                  : LAME3.99r
Encoding settings                : -m j -V 4 -q 2 -lowpass 17 -b 128

--------------------------------------------

More at   
http://publichash.com/

--------------------------------------------			
Arachnoquake.2012.BRRip.XviD-MeRCuRY/Arachnoquake.2012.BRRip.XviD-MeRCuRY.avi 731.544 MB
Arachnoquake.2012.BRRip.XviD-MeRCuRY/Arachnoquake.2012.BRRip.XviD-MeRCuRY.nfo 2.709 KB
Arachnoquake.2012.BRRip.XviD-MeRCuRY/Arachnoquake.2012.BRRip.XviD-MeRCuRY.srt 47.573 KB
Gathering some info...

Register and log in Isohunt and see no captcha anymore!

4000 symbols left
Hash 0c1648873fdadc0ef898050a5a16b9e7b4febe9f

Related torrents for "Arachnoquake.2012.BRRip.XviD-MeRCuRY"

Torrent search:

2012 bd