imdb
rating

6.3
Resolution

Resolution (2012)

Horror, Mystery, Thriller

Full description
quality   x264 hdtv ppvr dvdrip web-rip

{www.scenetime.com}Resolution.2012.WEBRiP.AC3-2.0.XviD-AXED

Size 1.486 GB   0 seeders     Added 2013-04-20 14:16:36

Stream torrent
Starting‥ You need BitLord! Get it from BitLord.com
To download or stream you need BitLord. Visit them at BitLord.com
.::::JOIN  http://www.SceneTime.com    Sign up is OPEN for now!::::....

....::::JOIN  http://www.SceneTime.com   Sign up is OPEN for now!::::....

.....:::::JOIN  http://www.SceneTime.com   Sign up is OPEN for now!::::....

......::::::JOIN  http://www.SceneTime.com   Sign up is OPEN for now!::::....


**********************************************************************************

Love for All and Sharing is the first step to solving all the problems of humanity.

Website I want to share.
             
        
http://SceneTime.com


- Latest Releases
- Super Fast Speeds
- Good Community
- Competitions with prizes (yay)
- Love for the Scene


Credit to EVERYONE for sharing and seeding back
especially to SceneTime where i get all my
downloads.

For more info about this release, open .NFO file with notepad !!!
Support scenetime to grow faster.

*************************************************************************************

....::::JOIN   http://www.SceneTime.com    Sign up is OPEN for now!::::....
....::::JOIN   http://www.SceneTime.com    Sign up is OPEN for now!::::....


INFO


IMDB: 
http://www.imdb.com/title/tt1977895/



Media Info:

General
Complete name: Resolution.2012.WEBRiP.AC3-2.0.XviD-AXED.avi
Format: AVI
Format/Info: Audio Video Interleave
File size: 1.37 GiB
Duration: 1h 32mn
Overall bit rate: 2 108 Kbps
Writing library: VirtualDub build 32842/release

Video
ID: 0
Format: MPEG-4 Visual
Format profile: Advanced Simple@L5
Format settings, BVOP: 1
Format settings, QPel: No
Format settings, GMC: No warppoints
Format settings, Matrix: Default (H.263)
Codec ID: XVID
Codec ID/Hint: XviD
Duration: 1h 32mn
Bit rate: 1 713 Kbps
Width: 720 pixels
Height: 304 pixels
Display aspect ratio: 2.35:1
Frame rate: 29.970 fps
Color space: YUV
Chroma subsampling: 4:2:0
Bit depth: 8 bits
Scan type: Progressive
Compression mode: Lossy
Bits/(Pixel*Frame): 0.261
Stream size: 1.11 GiB (81%)
Writing library: XviD 1.2.1 (UTC 2008-12-04)

Audio
ID: 1
Format: AC-3
Format/Info: Audio Coding 3
Mode extension: CM (complete main)
Codec ID: 2000
Duration: 1h 32mn
Bit rate mode: Constant
Bit rate: 384 Kbps
Channel(s): 2 channels
Channel positions: Front: L R
Sampling rate: 48.0 KHz
Bit depth: 16 bits
Compression mode: Lossy
Delay relative to video: 8ms
Stream size: 255 MiB (18%)
Alignment: Split accross interleaves
Interleave, duration: 33 ms (1.00 video frame)
Interleave, preload duration: 500 ms

SOURCE:
VOD Rental


NOTE

This was done a bit different than our usual VOD output, hence the title "WEBRiP", but the output is just as good as any "HDRiP" you've seen. Some of you will highly appreciate this movie, because it's an extremely well made, intelligent film. Some of you will hate it, because there aren't constant explosions or CGI monsters. You have to actually pay attention to this one
		
{www.scenetime.com}Resolution.2012.WEBRiP.AC3-2.0.XviD-AXED/Resolution.2012.WEBRiP.AC3-2.0.XviD-AXED.avi 1.469 GB
{www.scenetime.com}Resolution.2012.WEBRiP.AC3-2.0.XviD-AXED/SAMPLE.avi 16.798 MB
{www.scenetime.com}Resolution.2012.WEBRiP.AC3-2.0.XviD-AXED/Resolution.2012.WEBRiP.AC3-2.0.XviD-AXED.nfo 4.467 KB
Gathering some info...

Register and log in Isohunt and see no captcha anymore!

4000 symbols left
Hash 2bcffb2ad4eb25ad3ea25f1086a28055a109eff4

Related torrents for "{www.scenetime.com}Resolution.2012.WEBRiP.AC3-2.0.XviD-AXED"

Torrent search:

2012 web-rip