Amir

Amir (2016)

Full description
quality   x264 hdtv dvdrip hd fullhd ppvr

Amir.Garib.1974.1.CDRip.XVID.MP3.Subs.RRG.DADA.DBBians.Com

Size 744.588 MB   0 seeders     Added 2013-04-20 15:46:26

Stream torrent
Starting‥ You need BitLord! Get it from BitLord.com
To download or stream you need BitLord. Visit them at BitLord.com
Click To Enlarge 


-: Cover :-






    	image
    	image
    	image
    	image
    	image
    	image
    	image
    	image
    	image
    	image
    	image
    	image
    	image
    	image
    	image
    	image
    	image

    	image



-: Info :-


General

Format                           : AVI
Format/Info                      : Audio Video Interleave
File size                        : 697 MiB
Duration                         : 2h 28mn
Overall bit rate                 : 656 Kbps
Writing application              : VirtualDubMod 1.5.4.1 (build 2178/release)
Writing library                  : VirtualDubMod build 2178/release

Video
ID                               : 0
Format                           : MPEG-4 Visual
Format profile                   : Advanced Simple@L5
Format settings, BVOP            : Yes
Format settings, QPel            : No
Format settings, GMC             : No warppoints
Format settings, Matrix          : Custom
Codec ID                         : XVID
Codec ID/Hint                    : XviD
Duration                         : 2h 28mn
Bit rate                         : 586 Kbps
Width                            : 640 pixels
Height                           : 480 pixels
Display aspect ratio             : 4:3
Frame rate                       : 29.970 fps
Color space                      : YUV
Chroma subsampling               : 4:2:0
Bit depth                        : 8 bits
Scan type                        : Progressive
Bits/(Pixel*Frame)               : 0.064
Stream size                      : 623 MiB (89%)
Writing library                  : XviD 1.2.1 (UTC 2008-12-04)

Audio
ID                               : 1
Format                           : MPEG Audio
Format version                   : Version 2
Format profile                   : Layer 3
Mode                             : Joint stereo
Mode extension                   : MS Stereo
Codec ID                         : 55
Codec ID/Hint                    : MP3
Duration                         : 2h 28mn
Bit rate mode                    : Variable
Bit rate                         : 56.1 Kbps
Nominal bit rate                 : 64.0 Kbps
Channel(s)                       : 2 channels
Sampling rate                    : 24.0 KHz
Stream size                      : 59.5 MiB (9%)
Alignment                        : Aligned on interleaves
Interleave, duration             : 24 ms (0.72 video frame)
Interleave, preload duration     : 95 ms
Writing library                  : LAME3.98r
Language                         : Hindi
Ripper  - TDBB

 
http://www.imdb.com/title/tt0233202/

Directed by
Mohan Kumar	 	
 
Writing credits
(in alphabetical order)
Mohan Kumar	 	re-written by
K.A. Narayan	 	screenplay
K.A. Narayan	 	story
Ehsan Rizvi	 	dialogue

Cast (in credits order) complete, awaiting verification

	Dev Anand	... 	Moni

	Hema Malini	... 	Sunita 'Soni'
	Prem Nath	... 	Daulatram (as Premnath)
	Ranjeet	... 	Ranjit
	Sujit Kumar	... 	Police Inspector Anand (as Sujeet Kumar)
	Raj Mehra	... 	Police Commissioner
	Sulochana Latkar	... 	Parvati (as Sulochana)
	Mehmood Jr.	... 	Petrol pump employee
	Master Ravi		
	Bunty		
	Chaman Puri	... 	Baba (as Chamanpuri)
	Birbal	... 	Sukhiram
	Mohan Choti	... 	Krishnamurthy
	Mumtaz Begum	... 	Eatery owner
	Ram Mohan	... 	Cruel zamindar
	Master Sailesh		
	Dulari		
	Krishnakant	... 	Shankar (as Krishna Kant)
	V. Gopal		
	Tun Tun	... 	Governess
	Keshav Rana		
	C.L. Shah		
	Kamaldeep		(as Kamal Deep)
	Rajan Kapoor		
	Rirkoo		
	Sadhu Singh		
	Jerry		

Manmohan alias Moni lives a dual life. One as a magician, and the other as a thief with the name of Bhagula Bhagat, whose prime agenda is to rob the rich, and spread the wealth with the poor. He meets with a young woman named Sunita alias Soni, and both fall in love with each other. Things change for the better for Soni, when she meets her wealthy long-lost father, Daulatram, and goes to live with him. She decides not to have to do anything with Moni. When Moni attempts to meet Soni to find out why she has rejected him, she refuses to meet him. Then Moni finds out that Soni is not who she claims she is, and definitely not the daughter of Daulatram, but the daughter of another wealthy man named Nandlal, who had died under mysterious and destitute circumstance. 
		
Amir.Garib.1974.1.CDRip.XVID.MP3.Subs.RRG.DADA.DBBians.Com/Amir.Garib.1974.1.CDRip.XVID.MP3.Subs.RRG.DADA.DBBians.Com.2.Sub 6.818 MB
Amir.Garib.1974.1.CDRip.XVID.MP3.Subs.RRG.DADA.DBBians.Com/Amir.Garib.1974.1.CDRip.XVID.MP3.Subs.RRG.DADA.DBBians.Com.avi 730.749 MB
Amir.Garib.1974.1.CDRip.XVID.MP3.Subs.RRG.DADA.DBBians.Com/Amir.Garib.1974.1.CDRip.XVID.MP3.Subs.RRG.DADA.DBBians.Com.idx 76.523 KB
Gathering some info...

Register and log in Isohunt and see no captcha anymore!

4000 symbols left
Hash 112cc29517dd48ede443bcf738ee936494300bf8

Related torrents for "Amir.Garib.1974.1.CDRip.XVID.MP3.Subs.RRG.DADA.DBBians.Com"

Torrent search:

subs 1974