I Me Aur Main (2013) 1CD DVDRip XviD MP3 ESubs

Size 631.33 MB   0 seeders     Added 2013-04-20 19:47:25

Stream torrent
Starting‚Ä• You need BitLord! Get it from BitLord.com
To download or stream you need BitLord. Visit them at BitLord.com
mastitorrents.com
  
http://mastitorrents.com/forums/index.php
  
http://thepiratebay.se/user/HDvideos/0/7

I Me Aur Main (2013) Hindi 1CD DVDRip XviD MP3 ESubs

Format                                   : AVI
Format/Info                              : Audio Video Interleave
File size                                : 589 MiB
Duration                                 : 1h 45mn
Overall bit rate                         : 784 Kbps

Format                                   : MPEG-4 Visual
Format profile                           : Advanced Simple@L5
Format settings, BVOP                    : 3
Format settings, QPel                    : No
Format settings, GMC                     : No warppoints
Format settings, Matrix                  : Default (MPEG)
Codec ID                                 : XVID
Codec ID/Hint                            : XviD
Duration                                 : 1h 45mn
Bit rate                                 : 648 Kbps
Width                                    : 688 pixels
Height                                   : 288 pixels
Display aspect ratio                     : 2.40:1
Frame rate                               : 23.976 fps
Color space                              : YUV
Chroma subsampling                       : 4:2:0
Bit depth                                : 8 bits
Scan type                                : Progressive
Compression mode                         : Lossy
Bits/(Pixel*Frame)                       : 0.136
Stream size                              : 487 MiB (83%)
Writing library                          : XviD 1.2.1 (UTC 2008-12-04)

Format                                   : AC-3
Format/Info                              : Audio Coding 3
Mode extension                           : CM (complete main)
Format settings, Endianness              : Big
Codec ID                                 : 2000
Duration                                 : 1h 45mn
Bit rate mode                            : Constant
Bit rate                                 : 128 Kbps
Channel(s)                               : 6 channels
Channel positions                        : Front: L C R, Side: L R, LFE
Sampling rate                            : 48.0 KHz
Bit depth                                : 16 bits
Compression mode                         : Lossy
Stream size                              : 96.2 MiB (16%)
Alignment                                : Aligned on interleaves
Interleave, duration                     : 64 ms (1.53 video frames)
Interleave, preload duration             : 512 ms
Title                                    : K@rtik

Screens: 
image 
image 
image 
image 
image 
image 
image 
image 
image 
image 
image		
I Me Aur Main (2013) 1CD DVDRip XviD MP3 ESubs/I Me Aur Main (2013) 1CD DVDRip XviD MP3 ESubs.avi 617.465 MB
I Me Aur Main (2013) 1CD DVDRip XviD MP3 ESubs/I. Me Aur Main (2013) Sample.avi 13.862 MB
I Me Aur Main (2013) 1CD DVDRip XviD MP3 ESubs/Torrent Tracked by MastiTorrents.com.txt 2.738 KB
Gathering some info...

Register and log in Isohunt and see no captcha anymore!

4000 symbols left
Hash 4fb3ed9c098ba6c0c20866b99570aa4cb77e8bdd

Related torrents for "I Me Aur Main (2013) 1CD DVDRip XviD MP3 ESubs"

Torrent search:

dvdrip 2013