imdb
rating

6.3
Resolution

Resolution (2012)

Horror, Mystery, Thriller

Full description
quality   x264 hdtv ppvr dvdrip web-rip

Resolution.2012.WEBRiP.AC3-2.0.XviD-AXED

Size 1.486 GB   0 seeders     Added 2013-04-20 19:47:26

Stream torrent
Starting‥ You need BitLord! Get it from 1BitLord.com
To download or stream you need BitLord. Visit them at BitLord.com
(  ___  )|     /|(  ____ (  __   
| (   ) |(    / )| (    /| (    )
| (___) |  (_) / | (__    | |   ) |
|  ___  |  ) _ (  |  __)   | |   | |
| (   ) | / ( )  | (      | |   ) |
| )   ( |( /    )| (____/| (__/  )
|/     ||/     |(_______/(______/ 
  _    _    _    _    _    _    _    _  
 /   /   /   /   /   /   /   /  
( p )( r )( e )( s )( e )( n )( t )( s )
 _/  _/  _/  _/  _/  _/  _/  _/
 
Resolution.2012.DVDRiP.AC3-2.0.XviD-AXED

POSTER: 
[IMG]image[/IMG]

IMDB:  
http://www.imdb.com/title/tt1977895/

PLOT INFO:
Just as CABIN IN THE WOODS shook up the horror world with its slick satirizing of the tried and true trope of its titular namesake, RESOLUTION similarly conjures a deftly meta excursion into the genre in a fashion that feels original, absorbing and damn creepy. In a cabin by the woods, a junkie is visited by his estranged best friend in a desperate bid to rehabilitate him. As they rekindle their friendship in the dilapidated abode, they soon find themselves accosted by increasingly sinister neighboring forces, while stumbling upon a series of interconnected media (from diaries to VHS tapes) that surreally begin to embroil them in a supernatural plot that pervades both the cabin and its surroundings.

Media Info:

General
Complete name                    : Resolution.2012.WEBRiP.AC3-2.0.XviD-AXED.avi
Format                           : AVI
Format/Info                      : Audio Video Interleave
File size                        : 1.37 GiB
Duration                         : 1h 32mn
Overall bit rate                 : 2 108 Kbps
Writing library                  : VirtualDub build 32842/release

Video
ID                               : 0
Format                           : MPEG-4 Visual
Format profile                   : Advanced Simple@L5
Format settings, BVOP            : 1
Format settings, QPel            : No
Format settings, GMC             : No warppoints
Format settings, Matrix          : Default (H.263)
Codec ID                         : XVID
Codec ID/Hint                    : XviD
Duration                         : 1h 32mn
Bit rate                         : 1 713 Kbps
Width                            : 720 pixels
Height                           : 304 pixels
Display aspect ratio             : 2.35:1
Frame rate                       : 29.970 fps
Color space                      : YUV
Chroma subsampling               : 4:2:0
Bit depth                        : 8 bits
Scan type                        : Progressive
Compression mode                 : Lossy
Bits/(Pixel*Frame)               : 0.261
Stream size                      : 1.11 GiB (81%)
Writing library                  : XviD 1.2.1 (UTC 2008-12-04)

Audio
ID                               : 1
Format                           : AC-3
Format/Info                      : Audio Coding 3
Mode extension                   : CM (complete main)
Codec ID                         : 2000
Duration                         : 1h 32mn
Bit rate mode                    : Constant
Bit rate                         : 384 Kbps
Channel(s)                       : 2 channels
Channel positions                : Front: L R
Sampling rate                    : 48.0 KHz
Bit depth                        : 16 bits
Compression mode                 : Lossy
Delay relative to video          : 8ms
Stream size                      : 255 MiB (18%)
Alignment                        : Split accross interleaves
Interleave, duration             : 33 ms (1.00 video frame)
Interleave, preload duration     : 500 ms




SOURCE: 
VOD Rental

NOTES: 
This was done a bit different than our usual VOD output, hence the title "WEBRiP", but the output is just as good as any "HDRiP" you've seen. Some of you will highly appreciate this movie, because it's an extremely well made, intelligent film. Some of you will hate it, because there aren't constant explosions or CGI monsters. You have to actually pay attention to this one. 

AXED! We do this better.

SCREENS:
[IMG]image[/IMG]
[IMG]image[/IMG]
[IMG]image[/IMG]
[IMG]image[/IMG]
[IMG]image[/IMG]

		
Resolution.2012.WEBRiP.AC3-2.0.XviD-AXED/www.RARBG.com.txt 45 B
Resolution.2012.WEBRiP.AC3-2.0.XviD-AXED/SAMPLE.avi 16.798 MB
Resolution.2012.WEBRiP.AC3-2.0.XviD-AXED/Resolution.2012.WEBRiP.AC3-2.0.XviD-AXED.nfo 4.467 KB
Gathering some info...

Register and log in Isohunt and see no captcha anymore!

4000 symbols left
Hash a1027dff32d11c158d19f4e6f9fc3ebc067352a2

Related torrents for "Resolution.2012.WEBRiP.AC3-2.0.XviD-AXED"

Torrent search:

2012 web-rip