imdb
rating

6.4
The Company You Keep

The Company You Keep (2012)

Thriller

Full description

The.Company.You.Keep.2012.480p.BRRip.XviD.AC3-NYDIC

Size 1.878 GB   0 seeders     Added 2013-04-20 20:01:33

Stream torrent
Starting‥ You need BitLord! Get it from 1BitLord.com
To download or stream you need BitLord. Visit them at BitLord.com
	Format                                   : AVI
Format/Info                              : Audio Video Interleave
Format profile                           : OpenDML
Format settings                          : rec
File size                                : 1.75 GiB
Duration                                 : 2h 4mn
Overall bit rate                         : 2 005 Kbps
Writing application                      : AVI-Mux GUI 1.17.8.3, Feb 16 201019:42:50

Video
ID                                       : 0
Format                                   : MPEG-4 Visual
Format profile                           : Advanced Simple@L5
Format settings, BVOP                    : 2
Format settings, QPel                    : No
Format settings, GMC                     : No warppoints
Format settings, Matrix                  : Default (H.263)
Muxing mode                              : Packed bitstream
Codec ID                                 : XVID
Codec ID/Hint                            : XviD
Duration                                 : 2h 4mn
Bit rate                                 : 1 564 Kbps
Width                                    : 720 pixels
Height                                   : 304 pixels
Display aspect ratio                     : 2.35:1
Frame rate                               : 24.000 fps
Color space                              : YUV
Chroma subsampling                       : 4:2:0
Bit depth                                : 8 bits
Scan type                                : Progressive
Compression mode                         : Lossy
Bits/(Pixel*Frame)                       : 0.298
Stream size                              : 1.36 GiB (78%)
Writing library                          : XviD 64

Audio
ID                                       : 1
Format                                   : AC-3
Format/Info                              : Audio Coding 3
Mode extension                           : CM (complete main)
Format settings, Endianness              : Big
Codec ID                                 : 2000
Duration                                 : 2h 1mn
Bit rate mode                            : Constant
Bit rate                                 : 448 Kbps
Channel(s)                               : 6 channels
Channel positions                        : Front: L C R, Side: L R, LFE
Sampling rate                            : 48.0 KHz
Bit depth                                : 16 bits
Compression mode                         : Lossy
Stream size                              : 390 MiB (22%)
Alignment                                : Aligned on interleaves
Interleave, duration                     : 66 ms (1.58 video frames)
Interleave, preload duration             : 192 ms
Title                                    : aaa

Screens: 
image 
image 
image 
image		
The.Company.You.Keep.2012.480p.BRRip.XviD.AC3-NYDIC/www.RARBG.com.txt 45 B
The.Company.You.Keep.2012.480p.BRRip.XviD.AC3-NYDIC/The.Company.You.Keep.2012.480p.BRRip.XviD.AC3-NYDIC.avi 1.878 GB
Gathering some info...

Register and log in Isohunt and see no captcha anymore!

4000 symbols left
Hash 47ca0035d04b9832589fdf3143dc38938ac090a6

Related torrents for "The.Company.You.Keep.2012.480p.BRRip.XviD.AC3-NYDIC"

Torrent search:

2012 bd