The Source

The Source (2014)

Full description

42 2013 CAM Xvid NEW SOURCE UnKnOwN

Size 1.352 GB   0 seeders     Added 2013-04-21 19:16:26

Stream torrent
Starting‥ You need BitLord! Get it from 1BitLord.com
To download or stream you need BitLord. Visit them at BitLord.com
і Encoded By .......:UnKnOwN                                                   і
і Runtime ..........:1:58                                                      і
і IMDb URL .........:http://www.imdb.com/title/tt0453562/                      і
і Language .........:English                                                   і
і File Size ........:1.27gb                                                    і
і Release Date ......... 2011                                                  і
і Source       ......... Always UnKnOwN                                        і
і File Type    ......... Single AVI                                            і
і PS3 Compatible ....... Go for It                                             і
і Genre        ......... Sports/Drama                                          і
і                                                                              і
і                                                                              і
і Video                                                                        і
і  ID                               : 0                                        і
і  Format                           : MPEG-4 Visual                            і
і  Format profile                   : Advanced Simple@L5                       і
і  Format settings, BVOP            : Yes                                      і
і  Format settings, QPel            : No                                       і
і  Format settings, GMC             : No warppoints                            і
і  Format settings, Matrix          : Custom                                   і
і  Codec ID                         : XVID                                     і
і  Codec ID/Hint                    : XviD                                     і
і  Duration                         : 1h 58mn                                  і
і  Bit rate                         : 1432 Kbps                                і
і  Width                            : 680pixels                                і
і  Height                           : 348pixels                                і
і  Display aspect ratio             : 1.9.5                                    і
і  Frame rate                       : 29.997fps                                і
і  Color space                      : YUV                                      і
і  Chroma subsampling               : 4:2:0                                    і
і  Bit depth                        : 8 bits                                   і
і  Scan type                        : Progressive                              і
і  Bits/(Pixel*Frame)               : 0.234                                    і
і  Stream size                      : 892 MiB (86%)                            і
і  Writing library                  : XviD 1.2.1 (UTC 2008-12-04)              і
і                                                                              і
і                                                                              і
і Audio                                                                        і
і ID                               : 1                                         і
і Format                           : MP3                                       і
і Format/Info                      : Version 1                                 і
і Mode extension                   : AC3                                       і
і Codec ID                         : 2000                                      і
і Duration                         : 1h 58mn                                   і
і Bit rate mode                    : Constant                                  і
і Bit rate                         : 128Kbps                                   і
і Channel(s)                       : 2channels                                 і
і Channel positions                : Front: L R                                і
і Sampling rate                    : 48.0 KHz                                  і
і Bit depth                        : 16 bits                                   і
і Stream size                      : 302 MiB                                   і
і Alignment                        : Aligned on interleaves                    і
і Interleave, duration             : 42 ms (1.00 video frame)                  і
і Interleave, preload duration     : 512 ms                                    і

Screens:
 
image  
image  
image  
image 		
42 2013 CAM Xvid NEW SOURCE UnKnOwN/sample2.avi 10.26 MB
42 2013 CAM Xvid NEW SOURCE UnKnOwN/www.RARBG.com.txt 45 B
42 2013 CAM Xvid NEW SOURCE UnKnOwN/sample.avi 7.29 MB
Gathering some info...

Register and log in Isohunt and see no captcha anymore!

4000 symbols left
Hash 3330b317ac3492ac5bfb88a518c774a5034bbef9

Related torrents for "42 2013 CAM Xvid NEW SOURCE UnKnOwN"

Torrent search:

cam 2013