imdb
rating

6.2
Mama

Mama (2013)

Horror

Full description
quality   dvdr dvdrip hd telesync

Mama.2013.DvDRip.XviD.Ac3.Feel-Free

Size 1.189 GB   0 seeders     Added 2013-04-21 19:35:27

Stream torrent
Starting‥ You need BitLord! Get it from BitLord.com
To download or stream you need BitLord. Visit them at BitLord.com
	SourcevD Thanks
Sample:Never
Encoder:Tony

Format                                   : AVI
Format/Info                              : Audio Video Interleave
File size                                : 1.11 GiB
Duration                                 : 1h 40mn
Overall bit rate                         : 1 582 Kbps

Video
ID                                       : 0
Format                                   : MPEG-4 Visual
Format profile                           : Advanced Simple@L5
Format settings, BVOP                    : 1
Format settings, QPel                    : No
Format settings, GMC                     : No warppoints
Format settings, Matrix                  : Default (H.263)
Codec ID                                 : XVID
Codec ID/Hint                            : XviD
Duration                                 : 1h 40mn
Bit rate                                 : 1 189 Kbps
Width                                    : 640 pixels
Height                                   : 344 pixels
Display aspect ratio                     : 1.860
Frame rate                               : 23.976 fps
Color space                              : YUV
Chroma subsampling                       : 4:2:0
Bit depth                                : 8 bits
Scan type                                : Progressive
Compression mode                         : Lossy
Bits/(Pixel*Frame)                       : 0.225
Stream size                              : 851 MiB (75%)
Writing library                          : XviD 1.2.1 (UTC 2008-12-04)

Audio
ID                                       : 1
Format                                   : AC-3
Format/Info                              : Audio Coding 3
Mode extension                           : CM (complete main)
Codec ID                                 : 2000
Duration                                 : 1h 40mn
Bit rate mode                            : Constant
Bit rate                                 : 384 Kbps
Channel(s)                               : 6 channels
Channel positions                        : Front: L C R, Side: L R, LFE
Sampling rate                            : 48.0 KHz
Bit depth                                : 16 bits
Compression mode                         : Lossy
Stream size                              : 275 MiB (24%)
Alignment                                : Aligned on interleaves
Interleave, duration                     : 42 ms (1.00 video frame)
Interleave, preload duration             : 512 ms
		
Mama.2013.DvDRip.XviD.Ac3.Feel-Free/vlcsnap-2013-04-20-20h33m22s229.png 269.201 KB
Mama.2013.DvDRip.XviD.Ac3.Feel-Free/www.RARBG.com.txt 45 B
Mama.2013.DvDRip.XviD.Ac3.Feel-Free/vlcsnap-2013-04-20-20h33m17s169.png 316.757 KB
Gathering some info...

Register and log in Isohunt and see no captcha anymore!

4000 symbols left
Hash 027b57719f7caf2835f7569d698402b4cf6bc297

Related torrents for "Mama.2013.DvDRip.XviD.Ac3.Feel-Free"

Torrent search:

dvdrip 2013