imdb
rating

5.6
The Numbers Station

The Numbers Station (2013)

Action, Thriller

Full description

The.Numbers.Station.2013.HDRip.XVID.AC3.HQ.Hive-CM8

Size 1.396 GB   18 seeders     Added 2013-04-21 20:16:28

Stream torrent
Starting‥ You need BitLord! Get it from BitLord.com
To download or stream you need BitLord. Visit them at BitLord.com
--------------------------------------------
 
http://www.imdb.com/title/tt1659338/

89 min  -  Action | Thriller  -  21 March 2013 (Hong Kong)
5,3 Your rating:    -/10   Ratings: 5,3/10 from 783 users   

SUBTiTLES.......: Bulgarian

Language : English

Screens: 
http://imgsure.com/?p=801269 
http://imgsure.com/?p=176539

Format                           : AVI
Format/Info                      : Audio Video Interleave
File size                        : 1.30 GiB
Duration                         : 1h 28mn
Overall bit rate                 : 2 093 Kbps
Writing application              : Nandub v1.0rc2
Writing library                  : Nandub build 1853/release

Video
ID                               : 0
Format                           : MPEG-4 Visual
Format profile                   : Advanced Simple@L5
Format settings, BVOP            : 2
Format settings, QPel            : Yes
Format settings, GMC             : No warppoints
Format settings, Matrix          : Default (H.263)
Muxing mode                      : Packed bitstream
Codec ID                         : XVID
Codec ID/Hint                    : XviD
Duration                         : 1h 28mn
Bit rate                         : 1 700 Kbps
Width                            : 720 pixels
Height                           : 304 pixels
Display aspect ratio             : 2.35:1
Frame rate                       : 23.976 fps
Color space                      : YUV
Chroma subsampling               : 4:2:0
Bit depth                        : 8 bits
Scan type                        : Progressive
Compression mode                 : Lossy
Bits/(Pixel*Frame)               : 0.324
Stream size                      : 1.06 GiB (81%)
Writing library                  : XviD 1.2.1 (UTC 2008-12-04)

Audio
ID                               : 1
Format                           : AC-3
Format/Info                      : Audio Coding 3
Mode extension                   : CM (complete main)
Codec ID                         : 2000
Duration                         : 1h 28mn
Bit rate mode                    : Constant
Bit rate                         : 384 Kbps
Channel(s)                       : 6 channels
Channel positions                : Front: L C R, Side: L R, LFE
Sampling rate                    : 48.0 KHz
Bit depth                        : 16 bits
Compression mode                 : Lossy
Delay relative to video          : 26ms
Stream size                      : 244 MiB (18%)
Alignment                        : Split accross interleaves
Interleave, duration             : 42 ms (1.00 video frame)
Interleave, preload duration     : 500 ms

--------------------------------------------

More at   
http://publichash.com/

--------------------------------------------			
The.Numbers.Station.2013.HDRip.XVID.AC3.HQ.Hive-CM8/The.Numbers.Station.2013.HDRip.XVID.AC3.HQ.Hive-CM8.avi 1.396 GB
The.Numbers.Station.2013.HDRip.XVID.AC3.HQ.Hive-CM8/The.Numbers.Station.2013.HDRip.XVID.AC3.HQ.Hive-CM8.nfo 4.382 KB
The.Numbers.Station.2013.HDRip.XVID.AC3.HQ.Hive-CM8/The.Numbers.Station.2013.HDRip.XVID.AC3.HQ.Hive-CM8.srt 49.335 KB
Gathering some info...

Register and log in Isohunt and see no captcha anymore!

4000 symbols left
Hash eec9fdca882e6ed6d276f510a5e30f457861b0f5

Related torrents for "The.Numbers.Station.2013.HDRip.XVID.AC3.HQ.Hive-CM8"

Torrent search:

hd 2013