imdb
rating

5.8
The English Teacher

The English Teacher (2013)

Comedy, Drama

Full description

The.English.Teacher.2013.WEBRip XViD juggs

Size 742.576 MB   0 seeders     Added 2013-04-21 21:16:26

Stream torrent
Starting‥ You need BitLord! Get it from BitLord.com
To download or stream you need BitLord. Visit them at BitLord.com
Source : HDW (Thanks)
 
http://www.imdb.com/title/tt2055765/


Format                                   : AVI
Format/Info                              : Audio Video Interleave
File size                                : 700 MiB
Duration                                 : 1h 31mn
Overall bit rate                         : 1 068 Kbps
Writing library                          : VirtualDub build 32842/release

Video
ID                                       : 0
Format                                   : MPEG-4 Visual
Format profile                           : Advanced Simple@L5
Format settings, BVOP                    : 2
Format settings, QPel                    : No
Format settings, GMC                     : No warppoints
Format settings, Matrix                  : Default (H.263)
Muxing mode                              : Packed bitstream
Codec ID                                 : XVID
Codec ID/Hint                            : XviD
Duration                                 : 1h 31mn
Bit rate                                 : 930 Kbps
Width                                    : 640 pixels
Height                                   : 272 pixels
Display aspect ratio                     : 2.35:1
Frame rate                               : 23.976 fps
Color space                              : YUV
Chroma subsampling                       : 4:2:0
Bit depth                                : 8 bits
Scan type                                : Progressive
Compression mode                         : Lossy
Bits/(Pixel*Frame)                       : 0.223
Stream size                              : 610 MiB (87%)
Writing library                          : XviD 64

Audio
ID                                       : 1
Format                                   : MPEG Audio
Format version                           : Version 1
Format profile                           : Layer 3
Codec ID                                 : 55
Codec ID/Hint                            : MP3
Duration                                 : 1h 31mn
Bit rate mode                            : Constant
Bit rate                                 : 128 Kbps
Channel(s)                               : 2 channels
Sampling rate                            : 44.1 KHz
Compression mode                         : Lossy
Stream size                              : 83.9 MiB (12%)
Alignment                                : Split accross interleaves
Interleave, duration                     : 42 ms (1.00 video frame)
Interleave, preload duration             : 500 ms
Writing library                          : LAME3.99r
Encoding settings                        : -m s -V 4 -q 3 -lowpass 17 -b 128


Plot
An English teacher's life is disrupted when a former student returns to her small town after failing as a playwright in New York.
 
image 
image 
image		
The.English.Teacher.2013.WEBRip XViD juggs/The.English.Teacher.2013.WEBRip XViD juggs.avi 733.566 MB
The.English.Teacher.2013.WEBRip XViD juggs/Torrent Downloaded From ExtraTorrent.com.txt 339 B
The.English.Teacher.2013.WEBRip XViD juggs/sample.avi 9.009 MB
Gathering some info...

Register and log in Isohunt and see no captcha anymore!

4000 symbols left
Hash 3979e1160459d7211c2b06c122f8ce0b4c78ac27

Related torrents for "The.English.Teacher.2013.WEBRip XViD juggs"

Torrent search:

english web-rip 2013