imdb
rating

6.9
He Got Game

He Got Game (1998)

Drama

Full description
quality   dvdrip hd bd h264 fullhd dvdr

He.Got.Game.1998.DVDRip.XviD.VH-PROD

Size 1.464 GB   1 seeders     Added 2013-04-21 22:46:27

Stream torrent
Starting‥ You need BitLord! Get it from BitLord.com
To download or stream you need BitLord. Visit them at BitLord.com
--------------------------------------------
 
http://www.imdb.com/title/tt0124718/

136 min  -  Drama | Sport  -  1 May 1998 (USA)
6,8 Your rating:    -/10   Ratings: 6,8/10 from 24 565 users   Metascore: 63/100 

SUBTiTLES.......: Bulgarian

Language : English

Format                           : AVI
Format/Info                      : Audio Video Interleave
File size                        : 698 MiB
Duration                         : 1h 8mn
Overall bit rate                 : 1 415 Kbps
Writing application              : Nandub v1.0rc2
Writing library                  : Nandub build 1853/release

Video
ID                               : 0
Format                           : MPEG-4 Visual
Format settings, BVOP            : No
Format settings, QPel            : No
Format settings, GMC             : No warppoints
Format settings, Matrix          : Default (H.263)
Codec ID                         : XVID
Codec ID/Hint                    : XviD
Duration                         : 1h 8mn
Bit rate                         : 1 021 Kbps
Width                            : 592 pixels
Height                           : 320 pixels
Display aspect ratio             : 1.850
Frame rate                       : 23.976 fps
Color space                      : YUV
Chroma subsampling               : 4:2:0
Bit depth                        : 8 bits
Scan type                        : Progressive
Compression mode                 : Lossy
Bits/(Pixel*Frame)               : 0.225
Stream size                      : 504 MiB (72%)

Audio
ID                               : 1
Format                           : AC-3
Format/Info                      : Audio Coding 3
Mode extension                   : CM (complete main)
Codec ID                         : 2000
Duration                         : 1h 8mn
Bit rate mode                    : Constant
Bit rate                         : 384 Kbps
Channel(s)                       : 6 channels
Channel positions                : Front: L C R, Side: L R, LFE
Sampling rate                    : 48.0 KHz
Bit depth                        : 16 bits
Compression mode                 : Lossy
Delay relative to video          : 24ms
Stream size                      : 189 MiB (27%)
Alignment                        : Split accross interleaves
Interleave, duration             : 42 ms (1.00 video frame)
Interleave, preload duration     : 500 ms

--------------------------------------------

More at   
http://publichash.com/

--------------------------------------------			
He.Got.Game.1998.DVDRip.XviD.VH-PROD/He Got Game Cover.jpg 248.181 KB
He.Got.Game.1998.DVDRip.XviD.VH-PROD/He.Got.Game.1998-DVDRip.XviD.VH-PROD.CD1.avi 731.671 MB
He.Got.Game.1998.DVDRip.XviD.VH-PROD/He.Got.Game.1998-DVDRip.XviD.VH-PROD.CD1.sub 56.081 KB
Gathering some info...

Register and log in Isohunt and see no captcha anymore!

4000 symbols left
Hash 09867b4210a2babbc1104261b6a24f5df0a915de

Related torrents for "He.Got.Game.1998.DVDRip.XviD.VH-PROD"

Torrent search:

dvdrip 1998