imdb
rating

4.5
The Wicked Within

The Wicked Within (2015)

Horror

Full description
quality   x264 hd bd dvdrip web-dl web-rip

The Wicked 2013 BRRip 720p x264 AAC - PRiSTiNE [P2PDL]

Size 637.331 MB   54 seeders     Added 2013-04-22 00:17:25

Stream torrent
Starting‥ You need BitLord! Get it from BitLord.com
10
To download or stream you need BitLord. Visit them at BitLord.com
_________________________  Visit us at _________________________
  
http://p2pdl.com  ____________________________  http://p2pdl.com

 
image


The Wicked 2013 BRRip 720p x264 AAC - PRiSTiNE

Genre: Fantasy | Horror | Thriller
Plot: A Group of teenagers test the legend of an 
immortal witch and get more than they bargained for.
Stars: Devon Werkheiser, Diana Hopper, Nicole Forester
Rated: PG 13

Info: 
http://www.imdb.com/title/tt1986994/

Trailer:


General
Complete name                  : The Wicked 2013 BRRip 720p x264 AAC - PRiSTiNE.mp4
Format                         : MPEG-4
Format profile                 : Base Media
File size                      : 602 MiB
Duration                       : 1h 45mn
Overall bit rate mode          : Variable
Overall bit rate               : 801 Kbps

Video
Format                         : AVC
Format/Info                    : Advanced Video Codec
Format profile                 : High 10@L4.1
Bit rate                       : 719 Kbps
Width                          : 1 280 pixels
Height                         : 720 pixels
Display aspect ratio           : 16:9
Frame rate mode                : Constant
Frame rate                     : 23.976 fps
Bit depth                      : 10 bits
Stream size                    : 539 MiB (90%)
Writing library                : x264 core 130 r2273 b3065e6

Audio
Format                         : AAC
Format/Info                    : Advanced Audio Codec
Bit rate mode                  : Variable
Bit rate                       : 79.5 Kbps
Channel(s)                     : 2 channels
Channel positions              : Front: L R
Sampling rate                  : 48.0 KHz / 24.0 KHz
Stream size                    : 59.8 MiB (10%)
Language                       : English

Subtitle                       : Yes (English)
Source                         : BluRay 720p DTS x264-LEGi0N (Thanks)

Screens:
 
image 
image 
image 
image 
image 
image

----------------------------------------------------------------------------------------------------


Encoded using revolutionary 10bit encoding, which enables us to provide you more crispier 
and sharper images at small sizes, just make sure you follow our instructions without a fault.
Recommend to you to use latest version of VLC player. Install K-Lite Codec Pack or shark007 codecs
in case of any kind of problem in playback (For non-VLC Media Player users). Alternatively, install
Core AVC codecs, the fastest decoder that there is coupled with Community Center Codec Pack and play
on Windows Media Player Classic. Check sample to be sure.
Enjoy!

Encoder Notes:Looking For Early Access To Anything You Can Provide DVDScr, R5, DVDR, BluRay, Direct
Audio, Music Releases and Seedboxes. We require dedicated servers, so as to do more 
and fast releases of movies.
If You Got anything to offer please contact us at "prg@hush.com".

Face book Fan Page:   
http://www.fb.me/p2pdl		
The Wicked 2013 BRRip 720p x264 AAC - PRiSTiNE [P2PDL]/The Wicked 2013 BRRip 720p x264 AAC - PRiSTiNE/The Wicked 2013 BRRip 720p x264 AAC - PRiSTiNE.mp4 630.889 MB
The Wicked 2013 BRRip 720p x264 AAC - PRiSTiNE [P2PDL]/Sample.mp4 6.382 MB
The Wicked 2013 BRRip 720p x264 AAC - PRiSTiNE [P2PDL]/The Wicked 2013 BRRip 720p x264 AAC - PRiSTiNE/The Wicked 2013 BRRip 720p x264 AAC - PRiSTiNE.srt 54.076 KB
Gathering some info...

Register and log in Isohunt and see no captcha anymore!

4000 symbols left
Hash ae9b1a079d6b71dd8fdb73a32b3875d6e279b5d3

Related torrents for "The Wicked 2013 BRRip 720p x264 AAC - PRiSTiNE [P2PDL]"

Torrent search:

x264 hd bd 2013