imdb
rating

5.6
Scarecrows

Scarecrows (1988)

Horror

Full description
quality   hdtv dvdrip x264 hd bd h264 fullhd

Scarecrows.1988.DVDRip.XviD-MOTLEY

Size 1.627 GB   0 seeders     Added 2013-04-22 01:16:25

Stream torrent
Starting‥ You need BitLord! Get it from BitLord.com
10
To download or stream you need BitLord. Visit them at BitLord.com
--------------------------------------------
 
http://www.imdb.com/title/tt0096046/?ref_=fn_al_tt_1

83 min  -  Horror  -  26 March 1991 (Portugal)
5,6 Your rating:    -/10   Ratings: 5,6/10 from 2 010 users   

SUBTiTLES.......: Bulgarian

Language : English, Russian

Format                           : Matroska
Format version                   : Version 4 / Version 2
File size                        : 1.50 GiB
Duration                         : 1h 23mn
Overall bit rate                 : 2 583 Kbps
Encoded date                     : UTC 2013-04-21 08:00:37
Writing application              : mkvmerge v6.1.0 ('Old Devil' built on Mar  2 2013 14:32:37
Writing library                  : libebml v1.3.0 + libmatroska v1.4.0

Video
ID                               : 1
Format                           : MPEG-4 Visual
Format profile                   : Advanced Simple@L5
Format settings, BVOP            : Yes
Format settings, QPel            : No
Format settings, GMC             : No warppoints
Format settings, Matrix          : Custom
Codec ID                         : XVID
Codec ID/Hint                    : XviD
Duration                         : 1h 23mn
Bit rate                         : 2 179 Kbps
Width                            : 720 pixels
Height                           : 384 pixels
Display aspect ratio             : 1.875
Frame rate                       : 23.976 fps
Color space                      : YUV
Chroma subsampling               : 4:2:0
Bit depth                        : 8 bits
Scan type                        : Progressive
Compression mode                 : Lossy
Bits/(Pixel*Frame)               : 0.329
Stream size                      : 1.27 GiB (84%)
Writing library                  : XviD 1.2.1 (UTC 2008-12-04)
Language                         : English

Audio #1
ID                               : 2
Format                           : MPEG Audio
Format version                   : Version 1
Format profile                   : Layer 3
Mode                             : Joint stereo
Mode extension                   : MS Stereo
Codec ID                         : A_MPEG/L3
Codec ID/Hint                    : MP3
Duration                         : 1h 23mn
Bit rate mode                    : Constant
Bit rate                         : 128 Kbps
Channel(s)                       : 2 channels
Sampling rate                    : 48.0 KHz
Compression mode                 : Lossy
Stream size                      : 76.3 MiB (5%)
Title                            : by Motley
Writing library                  : LAME3.97
Language                         : English

Audio #2
ID                               : 3
Format                           : AC-3
Format/Info                      : Audio Coding 3
Mode extension                   : CM (complete main)
Codec ID                         : A_AC3
Duration                         : 1h 23mn
Bit rate mode                    : Constant
Bit rate                         : 224 Kbps
Channel(s)                       : 2 channels
Channel positions                : Front: L R
Sampling rate                    : 48.0 KHz
Bit depth                        : 16 bits
Compression mode                 : Lossy
Stream size                      : 134 MiB (9%)
Language                         : Russian

--------------------------------------------

More at   
http://publichash.com/

--------------------------------------------			
Scarecrows.1988.DVDRip.XviD-MOTLEY/Eng_sub/Scarecrows.1988.DVDRip.XviD-MOTLEY.idx 153.678 KB
Scarecrows.1988.DVDRip.XviD-MOTLEY/Eng_sub/Scarecrows.1988.DVDRip.XviD-MOTLEY.sub 11.727 MB
Scarecrows.1988.DVDRip.XviD-MOTLEY/Scarecrows.1988.DVDRip.XviD-MOTLEY.mkv 1.615 GB
Gathering some info...

Register and log in Isohunt and see no captcha anymore!

4000 symbols left
Hash 6bc885fba0b9e12aef32f7481fd9227495aa3914

Related torrents for "Scarecrows.1988.DVDRip.XviD-MOTLEY"

Torrent search:

dvdrip 1988