Ted's Notebook

Ted's Notebook (2014)

Full description

Ted's Notebook

Size 38.66 MB   0 seeders     Added 2013-04-22 05:46:26

Stream torrent
Starting‥ You need BitLord! Get it from 1BitLord.com
To download or stream you need BitLord. Visit them at BitLord.com
This is the Ted's notebook part of the post race show from Sky. I have posted this as most people requesting the post race show want to watch this part.

Runtime : About 8 Minutes


Technical Information :


Video

Format                         : AVC
Format/Info                    : Advanced Video Codec
Format profile                 : Main@L3.0
Format settings, CABAC         : Yes
Format settings, ReFrames      : 3 frames
Format settings, GOP           : M=1, N=50
Codec ID                       : 7
Duration                       : 7mn 9s
Bit rate                       : 581 Kbps
Width                          : 640 pixels
Height                         : 360 pixels
Display aspect ratio           : 16:9
Frame rate mode                : Constant
Frame rate                     : 25.000 fps
Color space                    : YUV
Chroma subsampling             : 4:2:0
Bit depth                      : 8 bits
Scan type                      : Progressive
Bits/(Pixel*Frame)             : 0.101
Stream size                    : 29.8 MiB (81%)

Audio

Format                         : AAC
Format/Info                    : Advanced Audio Codec
Format profile                 : LC
Codec ID                       : 10
Duration                       : 7mn 9s
Bit rate                       : 129 Kbps
Channel(s)                     : 2 channels
Channel positions              : Front: L R
Sampling rate                  : 44.1 KHz
Compression mode               : Lossy
Stream size                    : 6.59 MiB (18%)


Screens :
 
image
 
image
 
image
		
Ted's Notebook/TN.flv 38.574 MB
Ted's Notebook/Screens.jpg 31.668 KB
Ted's Notebook/Screens (1).jpg 26.626 KB
Gathering some info...

Register and log in Isohunt and see no captcha anymore!

4000 symbols left
Hash 4436e7614c3f300fd491591da25442c2d2ddf029