imdb
rating

6.7
Brooklyn's Finest

Brooklyn's Finest (2009)

Crime, Drama, Thriller

Full description

[ www.Speed.Cd ] - Brooklyns.Finest.2009.BRRip.XviD.AC3-playXD

Size 1.484 GB   0 seeders     Added 2013-04-22 10:36:34

Stream torrent
Starting‥ You need BitLord! Get it from BitLord.com
To download or stream you need BitLord. Visit them at BitLord.com
-
 
http://www.Speed. Cd       the fast  and The Hottest Private Tracker on the net 
http://www.Speed. Cd

Please Seed back to make the speed Faster!!
 ............ NFO .............
-
 
http://www.Speed. CdGeneral
Complete name                            : E:Brooklyns.Finest.2009.BRRip.XviD.AC3-playXDBrooklyns.Finest.2009.BRRip.XviD.AC3-playXD.avi
Format                                   : AVI
Format/Info                              : Audio Video Interleave
File size                                : 1.37 GiB
Duration                                 : 2h 12mn
Overall bit rate                         : 1 480 Kbps
Writing application                      : VirtualDubMod 1.5.10.2 (build 2540/release)
Writing library                          : VirtualDubMod build 2540/release

Video
ID                                       : 0
Format                                   : MPEG-4 Visual
Format profile                           : Advanced Simple@L5
Format settings, BVOP                    : 3
Format settings, QPel                    : Yes
Format settings, GMC                     : No warppoints
Format settings, Matrix                  : Default (H.263)
Codec ID                                 : XVID
Codec ID/Hint                            : XviD
Duration                                 : 2h 12mn
Bit rate                                 : 1 086 Kbps
Width                                    : 720 pixels
Height                                   : 304 pixels
Display aspect ratio                     : 2.35:1
Frame rate                               : 23.976 fps
Color space                              : YUV
Chroma subsampling                       : 4:2:0
Bit depth                                : 8 bits
Scan type                                : Progressive
Compression mode                         : Lossy
Bits/(Pixel*Frame)                       : 0.207
Stream size                              : 1.01 GiB (73%)
Writing library                          : XviD 1.2.1 (UTC 2008-12-04)

Audio
ID                                       : 1
Format                                   : AC-3
Format/Info                              : Audio Coding 3
Mode extension                           : CM (complete main)
Format settings, Endianness              : Big
Codec ID                                 : 2000
Duration                                 : 2h 12mn
Bit rate mode                            : Constant
Bit rate                                 : 384 Kbps
Channel(s)                               : 6 channels
Channel positions                        : Front: L C R, Side: L R, LFE
Sampling rate                            : 48.0 KHz
Bit depth                                : 16 bits
Compression mode                         : Lossy
Stream size                              : 364 MiB (26%)
Alignment                                : Split accross interleaves
Interleave, duration                     : 42 ms (1.00 video frame)
Interleave, preload duration             : 500 ms		
[ www.Speed.Cd ] - Brooklyns.Finest.2009.BRRip.XviD.AC3-playXD/Brooklyns.Finest.2009.BRRip.XviD.AC3-playXD.avi 1.472 GB
[ www.Speed.Cd ] - Brooklyns.Finest.2009.BRRip.XviD.AC3-playXD/playXD.nfo 5.696 KB
[ www.Speed.Cd ] - Brooklyns.Finest.2009.BRRip.XviD.AC3-playXD/Romanian.srt 104.863 KB
Gathering some info...

Register and log in Isohunt and see no captcha anymore!

4000 symbols left
Hash 1449aae3b4cc8f5e7cd6a4ae36e65e3f87142a07

Related torrents for "[ www.Speed.Cd ] - Brooklyns.Finest.2009.BRRip.XviD.AC3-playXD"

Torrent search:

2009 bd