imdb
rating

6.4
The Company You Keep

The Company You Keep (2012)

Thriller

Full description

[ www.Speed.Cd ] - The Company You Keep 2012 BRRip 720p x264 AAC - PRiSTiNE Verified

Size 733.441 MB   0 seeders     Added 2013-04-22 14:01:36

Stream torrent
Starting‥ You need BitLord! Get it from BitLord.com
To download or stream you need BitLord. Visit them at BitLord.com
-
 
http://www.Speed. Cd       the fast  and The Hottest Private Tracker on the net 
http://www.Speed. Cd

Please Seed back to make the speed Faster!!
 ............ NFO .............
-
 
http://www.Speed. Cd                                                                                                   
                                                                                                  
                                                                                                   
PPPPPPPPPPPPPPPPP   222222222222222   PPPPPPPPPPPPPPPPP  DDDDDDDDDDDDD     LLLLLLLLLLL             
P::::::::::::::::P 2::::::MAKE!::::22 P:::::::SAVE!::::P D::::SHARE!::DDD  L:::::::::L             
P::::::PPPPPP:::::P2::::::222222:::::2P::::::PPPPPP:::::PD:::::::::::::::DDL:::::::::L             
PP:::::P     P:::::2222222     2:::::2PP:::::P     P:::::DDD:::::DDDDD:::::LL:::::::LL             
  P::::P     P:::::P           2:::::2  P::::P     P:::::P D:::::D    D:::::DL:::::L               
  P::::P     P:::::P           2:::::2  P::::P     P:::::P D:::::D     D:::::L:::::L               
  P::::PPPPPP:::::P         2222::::2   P::::PPPPPP:::::P  D:::::D     D:::::L:::::L               
  P:::::::::::::PP     22222::::::22    P:::::::::::::PP   D:::::D     D:::::L:::::L               
  P::::PPPPPPPPP     22::::::::222      P::::PPPPPPPPP     D:::::D     D:::::L:::::L               
  P::::P            2:::::22222         P::::P             D:::::D     D:::::L:::::L               
  P::::P           2:::::2              P::::P             D:::::D     D:::::L:::::L               
  P::::P           2:::::2              P::::P             D:::::D    D:::::DL:::::L         LLLLLL
PP::::::PP         2:::::2       22222PP::::::PP         DDD:::::DDDDD:::::LL:::::::LLLLLLLLL:::::L
P::::::::P         2::::::2222222:::::P::::::::P         D:::::::::::::::DDL::::::::::::::::::::::L
P::::::::P         2:::::Vitamin_X::::P::VYTO::P         D::::ViZNU:::DDD  L::::::::::::::::::::::L
PPPPPPPPP PRiSTiNE 2222222222222222222PPPPPPPPP PRiSTiNE DDDDDDDDDDDDD     LLLLLLLLLLLLLLLLLLLLLLLL
                                                                                                   
                                                                                                   
                                                                                                   
_________________________  Visit us at _________________________
  
http://p2pdl.com  ____________________________  http://p2pdl.com

 
image


The Company You Keep 2012 BRRip 720p x264 AAC - PRiSTiNE

Genre: Thriller
Plot: A former Weather Underground activist goes on the 
run from a journalist who has discovered his identity.
Director: Robert Redford
Stars: Robert Redford, Nick Nolte, Stanley Tucci
Rated: Rated R for language

Info: 
http://www.imdb.com/title/tt1381404/

Trailer:


General
Complete name                  : The Company You Keep 2012 BRRip 720p x264 AAC - PRiSTiNE.mp4
Format                         : MPEG-4
Format profile                 : Base Media
File size                      : 699 MiB
Duration                       : 2h 4mn
Overall bit rate mode          : Variable
Overall bit rate               : 783 Kbps

Video
Format                         : AVC
Format profile                 : High 10@L4.1
Bit rate                       : 703 Kbps
Width                          : 1 280 pixels
Height                         : 544 pixels
Display aspect ratio           : 2.35:1
Frame rate mode                : Constant
Frame rate                     : 24.000 fps
Bit depth                      : 10 bits
Stream size                    : 627 MiB (90%)
Writing library                : x264 core 130 r2273 b3065e6

Audio
Format                         : AAC
Bit rate                       : 79.8 Kbps
Channel(s)                     : 2 channels
Channel positions              : Front: L R
Sampling rate                  : 48.0 KHz / 24.0 KHz
Stream size                    : 69.4 MiB (10%)
Language                       : English

Subtitle                       : Yes (English)
Source                         : 720p.BluRay.x264.DTS-PTpOWeR (Thanks)

Screens:
 
image 
image 
image 
image 
image

----------------------------------------------------------------------------------------------------


Encoded using revolutionary 10bit encoding, which enables us to provide you more crispier 
and sharper images at small sizes, just make sure you follow our instructions without a fault.
Recommend to you to use latest version of VLC player. Install K-Lite Codec Pack or shark007 codecs
in case of any kind of problem in playback (For non-VLC Media Player users). Alternatively, install
Core AVC codecs, the fastest decoder that there is coupled with Community Center Codec Pack and play
on Windows Media Player Classic. Check sample to be sure.
Enjoy!

Encoder Notes:Looking For Early Access To Anything You Can Provide DVDScr, R5, DVDR, BluRay, Direct
Audio, Music Releases and Seedboxes. We require dedicated servers, so as to do more 
and fast releases of movies.
If You Got anything to offer please contact us at "prg@hush.com".

Face book Fan Page:   
http://www.fb.me/p2pdl		
[ www.Speed.Cd ] - The Company You Keep 2012 BRRip 720p x264 AAC - PRiSTiNE/The Company You Keep 2012 BRRip 720p x264 AAC - PRiSTiNE.mp4 733.436 MB
[ www.Speed.Cd ] - The Company You Keep 2012 BRRip 720p x264 AAC - PRiSTiNE/The Company You Keep 2012 BRRip 720p x264 AAC - PRiSTiNE.nfo 5.345 KB
[ www.Speed.Cd ] - The Company You Keep 2012 BRRip 720p x264 AAC - PRiSTiNE/www.scenetime.com.txt 55 B
Gathering some info...

Register and log in Isohunt and see no captcha anymore!

4000 symbols left
Hash 150f01180aefebe77c4d6116f7ad5d66f2c39cc6

Related torrents for "[ www.Speed.Cd ] - The Company You Keep 2012 BRRip 720p x264 AAC - PRiSTiNE"

Torrent search:

x264 hd 2012 bd