imdb
rating

8.0
Patton

Patton (1970)

Drama, History, War

Full description
quality   dvdr x264 hd bd dvdrip h264 fullhd

Patton [1970] 720p BRRip H264 AC3 - CODY Verified

Size 2.904 GB   0 seeders     Added 2013-04-22 16:16:32

Stream torrent
Starting‥ You need BitLord! Get it from BitLord.com
To download or stream you need BitLord. Visit them at BitLord.com
General
Complete name                            : Patton [1970] 720p BRRip H264 AC3 - CODY.mp4
Format                                   : MPEG-4
Format profile                           : Base Media
Codec ID                                 : isom
File size                                : 2.70 GiB
Duration                                 : 2h 51mn
Overall bit rate mode                    : Variable
Overall bit rate                         : 2 251 Kbps

Video
ID                                       : 1
Format                                   : AVC
Format/Info                              : Advanced Video Codec
Format profile                           : High@L4.1
Format settings, CABAC                   : Yes
Format settings, ReFrames                : 5 frames
Codec ID                                 : avc1
Codec ID/Info                            : Advanced Video Coding
Duration                                 : 2h 51mn
Bit rate mode                            : Variable
Bit rate                                 : 1 800 Kbps
Maximum bit rate                         : 20.0 Mbps
Width                                    : 1 280 pixels
Height                                   : 584 pixels
Display aspect ratio                     : 2.2:1
Frame rate mode                          : Constant
Frame rate                               : 23.976 fps
Color space                              : YUV
Chroma subsampling                       : 4:2:0
Bit depth                                : 8 bits
Scan type                                : Progressive
Bits/(Pixel*Frame)                       : 0.100
Stream size                              : 2.16 GiB (80%)
Writing library                          : x264 core 125 r2208 d9d2288
Encoding settings                        : rc=2pass
Color primaries                          : Generic film

Audio
ID                                       : 2
Format                                   : AC-3
Format/Info                              : Audio Coding 3
Mode extension                           : CM (complete main)
Format settings, Endianness              : Big
Codec ID                                 : ac-3
Duration                                 : 2h 51mn
Bit rate mode                            : Constant
Bit rate                                 : 448 Kbps
Channel(s)                               : 6 channels
Channel positions                        : Front: L C R, Side: L R, LFE
Sampling rate                            : 48.0 KHz
Bit depth                                : 16 bits
Compression mode                         : Lossy
Delay relative to video                  : 125ms
Stream size                              : 551 MiB (20%)

Audio language                           : English

IMDB link:                                 http://www.imdb.com/title/tt0066206/

Subtitles included                       : English, Romanian, Spanish, Swedish

Please seed at least 1,5:1 . This way this torrent has a chance to survive !

Thanks . Enjoy !! 				
		
Patton [1970] 720p BRRip H264 AC3 - CODY/Cover.jpg 256.019 KB
Patton [1970] 720p BRRip H264 AC3 - CODY/Info_by_Cody.txt 7.846 KB
Patton [1970] 720p BRRip H264 AC3 - CODY/Patton [1970] 720p BRRip H264 AC3 - CODY.English-for-non-english.srt 9.376 KB
Gathering some info...

Register and log in Isohunt and see no captcha anymore!

4000 symbols left
Hash 448d2b44591e1a5f1abb3bde64c1e07d8f467c67

Related torrents for "Patton [1970] 720p BRRip H264 AC3 - CODY"

Torrent search:

h264 hd 1970 bd