The Details 2011 BRRip 720p x264 AAC - PRiSTiNE [P2PDL] Verified

Size 698.316 MB   11 seeders     Added 2013-04-22 17:46:38

Stream torrent
Starting‥ You need BitLord! Get it from 1BitLord.com
To download or stream you need BitLord. Visit them at BitLord.com
_________________________  Visit us at _________________________
  
http://p2pdl.com  ____________________________  http://p2pdl.com


The Details 2011 BRRip 720p x264 AAC - PRiSTiNE [P2PDL]

Genre: Comedy | Drama
Plot: When a family of raccoons discover worms 
living underneath the sod in Jeff and Nealy's 
backyard, this pest problem begins a darkly 
comic and wild chain reaction of domestic 
tension, infidelity and murder.
Director: Jacob Aaron Estes
Stars: Tobey Maguire, Elizabeth Banks, Ray Liotta
Rated: Rated R for language, sexual content, some drug use and brief violence

Info: 
http://www.imdb.com/title/tt1433207/

General
Complete name                  : The Details 2011 BRRip 720p x264 AAC - PRiSTiNE.mp4
Format                         : MPEG-4
Format profile                 : Base Media
Codec ID                       : isom
File size                      : 652 MiB
Duration                       : 1h 41mn
Overall bit rate mode          : Variable
Overall bit rate               : 898 Kbps

Video
Format                         : AVC
Format/Info                    : Advanced Video Codec
Format profile                 : High 10@L4.1
Bit rate                       : 815 Kbps
Width                          : 1 280 pixels
Height                         : 720 pixels
Display aspect ratio           : 16:9
Frame rate mode                : Constant
Frame rate                     : 23.976 fps
Bit depth                      : 10 bits
Scan type                      : Progressive
Stream size                    : 591 MiB (91%)
Writing library                : x264 core 130 r2273 b3065e6

Audio
Format                         : AAC
Bit rate mode                  : Variable
Bit rate                       : 79.9 Kbps
Channel(s)                     : 2 channels
Channel positions              : Front: L R
Sampling rate                  : 48.0 KHz / 24.0 KHz
Stream size                    : 58.0 MiB (9%)
Language                       : English

Subtitle                       : Yes (English)
Source                         : 720p.BluRay.X264-Japhson (Thanks)

Screenshots:
 
image 
image 
image 
image 
image 
image 
image

----------------------------------------------------------------------------------------------------


Encoded using revolutionary 10bit encoding, which enables us to provide you more crispier 
and sharper images at small sizes, just make sure you follow our instructions without a fault.
Recommend to you to use latest version of VLC player. Install K-Lite Codec Pack or shark007 codecs
in case of any kind of problem in playback (For non-VLC Media Player users). Alternatively, install
Core AVC codecs, the fastest decoder that there is coupled with Community Center Codec Pack and play
on Windows Media Player Classic. Check sample to be sure.
Enjoy!

Encoder Notes:Looking For Early Access To Anything You Can Provide DVDScr, R5, DVDR, BluRay, Direct
Audio, Music Releases and Seedboxes. We require dedicated servers, so as to do more 
and fast releases of movies.
If You Got anything to offer please contact us at "prg@hush.com".

Face book Fan Page:   
http://www.fb.me/p2pdl		
The Details 2011 BRRip 720p x264 AAC - PRiSTiNE [P2PDL]/The Details 2011 BRRip 720p x264 AAC - PRiSTiNE/The Details 2011 BRRip 720p x264 AAC - PRiSTiNE.mp4 683.546 MB
The Details 2011 BRRip 720p x264 AAC - PRiSTiNE [P2PDL]/Sample.mp4 14.655 MB
The Details 2011 BRRip 720p x264 AAC - PRiSTiNE [P2PDL]/The Details 2011 BRRip 720p x264 AAC - PRiSTiNE/The Details 2011 BRRip 720p x264 AAC - PRiSTiNE.srt 109.773 KB
Gathering some info...

Register and log in Isohunt and see no captcha anymore!

4000 symbols left
Hash a2658aca10205cde2a6a64c59c6d5d0fa1c966cf