Justin Timberlake Ft. JAY Z - Suit & Tie [Music Video] 1080p [Sbyky].mp4

Size 101.641 MB   15 seeders     Added 2013-04-22 22:46:38

Stream torrent
Starting‥ You need BitLord! Get it from BitLord.com
To download or stream you need BitLord. Visit them at BitLord.com
[IMG]image[/IMG]

General
Complete name                            : Justin Timberlake Ft. JAY Z - Suit & Tie [Music Video] 1080p [Sbyky].mp4
Format                                   : MPEG-4
Format profile                           : Base Media / Version 2
Codec ID                                 : mp42
File size                                : 96.9 MiB
Duration                                 : 5mn 30s
Overall bit rate mode                    : Variable
Overall bit rate                         : 2 464 Kbps
Encoded date                             : UTC 2013-04-08 05:19:57
Tagged date                              : UTC 2013-04-08 05:19:57

Video
ID                                       : 1
Format                                   : AVC
Format/Info                              : Advanced Video Codec
Format profile                           : High@L4.0
Format settings, CABAC                   : Yes
Format settings, ReFrames                : 1 frame
Codec ID                                 : avc1
Codec ID/Info                            : Advanced Video Coding
Duration                                 : 5mn 29s
Bit rate                                 : 2 270 Kbps
Maximum bit rate                         : 16.9 Mbps
Width                                    : 1 920 pixels
Height                                   : 1 080 pixels
Display aspect ratio                     : 16:9
Frame rate mode                          : Constant
Frame rate                               : 23.976 fps
Color space                              : YUV
Chroma subsampling                       : 4:2:0
Bit depth                                : 8 bits
Scan type                                : Progressive
Bits/(Pixel*Frame)                       : 0.046
Stream size                              : 89.3 MiB (92%)
Tagged date                              : UTC 2013-04-08 05:20:06

Audio
ID                                       : 2
Format                                   : AAC
Format/Info                              : Advanced Audio Codec
Format profile                           : LC
Codec ID                                 : 40
Duration                                 : 5mn 30s
Bit rate mode                            : Variable
Bit rate                                 : 192 Kbps
Maximum bit rate                         : 202 Kbps
Channel(s)                               : 2 channels
Channel positions                        : Front: L R
Sampling rate                            : 44.1 KHz
Compression mode                         : Lossy
Stream size                              : 7.55 MiB (8%)
Title                                    : IsoMedia File Produced by Google, 5-11-2011
Encoded date                             : UTC 2013-04-08 05:20:03
Tagged date                              : UTC 2013-04-08 05:20:06

Shared By Sbyky
[IMG]image[/IMG]
[IMG]image[/IMG]		
Justin Timberlake Ft. JAY Z - Suit & Tie [Music Video] 1080p [Sbyky].mp4 101.641 MB
Gathering some info...

Register and log in Isohunt and see no captcha anymore!

4000 symbols left
Hash 81d572e08280af2f1713a80869257cfbf8688c25

Related torrents for "Justin Timberlake Ft. JAY Z - Suit & Tie [Music Video] 1080p [Sbyky].mp4"