imdb
rating

7.0
Remember Sunday

Remember Sunday (2013)

Drama, Romance, TV Movie

Full description
quality   hdtv web-rip x264 bd

Remember Sunday_720p.HDTV.x264_TTL

Size 2.575 GB   0 seeders     Added 2013-04-23 03:16:37

Stream torrent
Starting‥ You need BitLord! Get it from BitLord.com
To download or stream you need BitLord. Visit them at BitLord.com
This is the Hallmark movie from 4-21-2013.							

												

Enjoy and please share.										

												

												

TTLTTLTTLTTLTTLTTLTTLTTLTTLTTLTTLTTLTTLTTLTTLTTLTTLTTLTTLTTLTTLTTLTTL				

												

												

Remember Sunday_720p.HDTV.x264_TTL.mkv
Format                           : Matroska
File size                        : 2.36 GiB
Duration                         : 1h 35mn
Overall bit rate                 : 3 541 Kbps
Writing application              : HandBrake 0.9.5
Writing library                  : libmkv 0.6.4.1

Video
ID                               : 1
Format                           : AVC
Format/Info                      : Advanced Video Codec
Format profile                   : High@L3.2
Format settings, CABAC           : Yes
Format settings, ReFrames        : 4 frames
Muxing mode                      : Container profile=Unknown@3.2
Codec ID                         : V_MPEG4/ISO/AVC
Duration                         : 1h 35mn
Bit rate                         : 3 246 Kbps
Nominal bit rate                 : 3 308 Kbps
Width                            : 1 280 pixels
Height                           : 720 pixels
Display aspect ratio             : 16:9
Frame rate mode                  : Variable
Frame rate                       : 59.940 fps
Resolution                       : 8 bits
Colorimetry                      : 4:2:0
Scan type                        : Progressive
Bits/(Pixel*Frame)               : 0.059
Stream size                      : 2.16 GiB (92%)
Writing library                  : x264 core 112

Audio                            : English
ID                               : 2
Format                           : AC-3
Format/Info                      : Audio Coding 3
Codec ID                         : A_AC3
Duration                         : 1h 35mn
Bit rate mode                    : Constant
Bit rate                         : 224 Kbps
Channel(s)                       : 2 channels
Channel positions                : L R
Sampling rate                    : 48.0 KHz
Stream size                      : 153 MiB (6%)

		
Remember Sunday_720p.HDTV.x264_TTL/Remember Sunday_720p.HDTV.x264_TTL.mkv 2.536 GB
Remember Sunday_720p.HDTV.x264_TTL/Remember Sunday_720p.HDTV.x264_TTL-Sample.mkv 39.529 MB
Remember Sunday_720p.HDTV.x264_TTL/Remember Sunday_720p.HDTV.x264_TTL.txt 1.895 KB
Gathering some info...

Register and log in Isohunt and see no captcha anymore!

4000 symbols left
Hash 5bc9368c8bbcb5e9830dfdd62a11b5bd4525c7ea

Related torrents for "Remember Sunday_720p.HDTV.x264_TTL"

Torrent search:

hdtv