imdb
rating

8.1
There Will Be Blood

There Will Be Blood (2007)

Drama

Full description
quality   dvdrip dvdr screener hd bd x264

There Will Be Blood 2007 BRRip 720p x264 AAC - PRiSTiNE [P2PDL]

Size 983.297 MB   3 seeders     Added 2013-04-23 14:17:34

Stream torrent
Starting‥ You need BitLord! Get it from BitLord.com
To download or stream you need BitLord. Visit them at BitLord.com
_________________________  Visit us at _________________________
  
http://p2pdl.com  ____________________________  http://p2pdl.com


There Will Be Blood 2007 BRRip 720p x264 AAC - PRiSTiNE [P2PDL]

Genre: Drama
Plot: A story about family, greed, religion, and oil, 
centered around a turn-of-the-century prospector in 
the early days of the business.
Director: Paul Thomas Anderson
Stars: Daniel Day-Lewis, Martin Stringer, Paul Dano
Rated: Rated R for some violence

Info: 
http://www.imdb.com/title/tt0469494/


General
Complete name                  : There Will Be Blood 2007 BRRip 720p x264 AAC - PRiSTiNE.mp4
Format                         : MPEG-4
File size                      : 931 MiB
Duration                       : 2h 38mn
Overall bit rate mode          : Variable
Overall bit rate               : 822 Kbps

Video
Format                         : AVC
Format/Info                    : Advanced Video Codec
Format profile                 : High 10@L4.1
Bit rate                       : 738 Kbps
Width                          : 1 280 pixels
Height                         : 536 pixels
Display aspect ratio           : 2.40:1
Frame rate mode                : Constant
Frame rate                     : 23.976 fps
Bit depth                      : 10 bits
Stream size                    : 836 MiB (90%)
Writing library                : x264 core 130 r2273 b3065e6

Audio
Format                         : AAC
Bit rate mode                  : Variable
Bit rate                       : 80.0 Kbps
Channel(s)                     : 2 channels
Channel positions              : Front: L R
Sampling rate                  : 48.0 KHz
Stream size                    : 90.7 MiB (10%)
Language                       : English

Subtitle                       : Yes (English)
Source                         : 720p.BluRay.DTS.x264-ESiR (Thanks)

Screenshots:
 
image 
image 
image 
image 
image 
image 
image


----------------------------------------------------------------------------------------------------


Encoded using revolutionary 10bit encoding, which enables us to provide you more crispier 
and sharper images at small sizes, just make sure you follow our instructions without a fault.
Recommend to you to use latest version of VLC player. Install K-Lite Codec Pack or shark007 codecs
in case of any kind of problem in playback (For non-VLC Media Player users). Alternatively, install
Core AVC codecs, the fastest decoder that there is coupled with Community Center Codec Pack and play
on Windows Media Player Classic. Check sample to be sure.
Enjoy!

Encoder Notes:Looking For Early Access To Anything You Can Provide DVDScr, R5, DVDR, BluRay, Direct
Audio, Music Releases and Seedboxes. We require dedicated servers, so as to do more 
and fast releases of movies.
If You Got anything to offer please contact us at "prg@hush.com".

Face book Fan Page:   
http://www.fb.me/p2pdl		
There Will Be Blood 2007 BRRip 720p x264 AAC - PRiSTiNE [P2PDL]/There Will Be Blood 2007 BRRip 720p x264 AAC - PRiSTiNE/There Will Be Blood 2007 BRRip 720p x264 AAC - PRiSTiNE.mp4 976.125 MB
There Will Be Blood 2007 BRRip 720p x264 AAC - PRiSTiNE [P2PDL]/Sample.mp4 7.064 MB
There Will Be Blood 2007 BRRip 720p x264 AAC - PRiSTiNE [P2PDL]/There Will Be Blood 2007 BRRip 720p x264 AAC - PRiSTiNE/There Will Be Blood 2007 BRRip 720p x264 AAC - PRiSTiNE.srt 101.815 KB
Gathering some info...

Register and log in Isohunt and see no captcha anymore!

4000 symbols left
Hash 3cbf7a25424fd2d2f43533a4695da2b2368f5e32

Related torrents for "There Will Be Blood 2007 BRRip 720p x264 AAC - PRiSTiNE [P2PDL]"

Torrent search:

x264 2007 hd bd