imdb
rating

7.2
White Oleander

White Oleander (2002)

Drama

Full description
quality   dvdrip x264

White.Oleander.2002.DVDRip.XviD.AC3-C00LdUdE

Size 1.57 GB   48 seeders     Added 2013-04-23 18:01:31

Stream torrent
Starting‥ You need BitLord! Get it from BitLord.com
To download or stream you need BitLord. Visit them at BitLord.com
--------------------------------------------
 
http://www.imdb.com/title/tt0283139/

109 min  -  Drama  -  28 February 2003 (Bulgaria)
7,0 Your rating:    -/10   Ratings: 7,0/10 from 19 202 users   Metascore: 61/100 

SUBTiTLES.......: Bulgarian

Language : English

Format                           : AVI
Format/Info                      : Audio Video Interleave
File size                        : 1.46 GiB
Duration                         : 1h 47mn
Overall bit rate                 : 1 948 Kbps
Writing application              : VirtualDubMod 1.5.10.2 (build 2540/release)
Writing library                  : VirtualDubMod build 2540/release

Video
ID                               : 0
Format                           : MPEG-4 Visual
Format profile                   : Advanced Simple@L5
Format settings, BVOP            : 2
Format settings, QPel            : No
Format settings, GMC             : No warppoints
Format settings, Matrix          : Custom
Muxing mode                      : Packed bitstream
Codec ID                         : XVID
Codec ID/Hint                    : XviD
Duration                         : 1h 47mn
Bit rate                         : 1 493 Kbps
Width                            : 688 pixels
Height                           : 384 pixels
Display aspect ratio             : 16:9
Frame rate                       : 23.976 fps
Color space                      : YUV
Chroma subsampling               : 4:2:0
Bit depth                        : 8 bits
Scan type                        : Progressive
Compression mode                 : Lossy
Bits/(Pixel*Frame)               : 0.236
Stream size                      : 1.12 GiB (77%)
Writing library                  : XviD 1.1.0 RC (UTC 2005-11-22)

Audio
ID                               : 1
Format                           : AC-3
Format/Info                      : Audio Coding 3
Mode extension                   : CM (complete main)
Codec ID                         : 2000
Duration                         : 1h 47mn
Bit rate mode                    : Constant
Bit rate                         : 448 Kbps
Channel(s)                       : 6 channels
Channel positions                : Front: L C R, Side: L R, LFE
Sampling rate                    : 48.0 KHz
Bit depth                        : 16 bits
Compression mode                 : Lossy
Delay relative to video          : 16ms
Stream size                      : 344 MiB (23%)
Alignment                        : Split accross interleaves
Interleave, duration             : 96 ms (2.30 video frames)
Interleave, preload duration     : 96 ms
Language                         : English

--------------------------------------------

More at   
http://publichash.com/

--------------------------------------------			
White.Oleander.2002.DVDRip.XviD.AC3-C00LdUdE/Torrent downloaded from unhide-torrents.org.NFO 28 B
White.Oleander.2002.DVDRip.XviD.AC3-C00LdUdE/White.Oleander.2002.DVDRip.XviD.AC3-C00LdUdE.avi 1.57 GB
White.Oleander.2002.DVDRip.XviD.AC3-C00LdUdE/White.Oleander.2002.DVDRip.XviD.AC3-C00LdUdE.srt 76.27 KB
Gathering some info...

Register and log in Isohunt and see no captcha anymore!

4000 symbols left
Hash 8e1522708a8b6edba1c9851af7c3ab7d2c033e2f

Related torrents for "White.Oleander.2002.DVDRip.XviD.AC3-C00LdUdE"

Torrent search:

dvdrip 2002