imdb
rating

5.9
Percy Jackson & the Olympians: The Lightning Thief

Percy Jackson & the Olympians: The Lightning Thief (2010)

Adventure, Fantasy, Family

Full description
quality   cam dvd dvdrip screener fullhd

Percy Jackson And The Lightning Thief 2010 BRRip 720p x264 AAC - PRiSTiNE [P2PDL]

Size 748.729 MB   2 seeders     Added 2013-04-23 19:01:26

Stream torrent
Starting‥ You need BitLord! Get it from 1BitLord.com
To download or stream you need BitLord. Visit them at BitLord.com
_________________________  Visit us at _________________________
  
http://p2pdl.com  ____________________________  http://p2pdl.com


Percy Jackson And The Lightning Thief 2010 BRRip 720p x264 AAC - PRiSTiNE [P2PDL]

Genre: Adventure | Family | Fantasy
Plot: A teenager discovers he's the descendant of 
a Greek god and sets out on an adventure to 
settle an on-going battle between the gods.
Director: Chris Columbus
Stars: Logan Lerman, Brandon T. Jackson, Steve Coogan
Rated: Rated PG for action violence and peril, some scary images and suggestive material, and mild language

Info: 
http://www.imdb.com/title/tt0814255/

General
Complete name                  : Percy Jackson And The Lightning Thief 2010 BRRip 720p x264 AAC - PRiSTiNE.mp4
Format                         : MPEG-4
File size                      : 700 MiB
Duration                       : 1h 58mn
Overall bit rate mode          : Variable
Overall bit rate               : 825 Kbps

Video
Format                         : AVC
Format/Info                    : Advanced Video Codec
Format profile                 : High 10@L4.1
Bit rate                       : 742 Kbps
Width                          : 1 280 pixels
Height                         : 544 pixels
Display aspect ratio           : 2.35:1
Frame rate mode                : Constant
Frame rate                     : 23.976 fps
Bit depth                      : 10 bits
Stream size                    : 629 MiB (90%)
Writing library                : x264 core 130 r2273 b3065e6

Audio
Format                         : AAC
Format/Info                    : Advanced Audio Codec
Bit rate                       : 80.0 Kbps
Channel(s)                     : 2 channels
Channel positions              : Front: L R
Sampling rate                  : 48.0 KHz
Stream size                    : 67.9 MiB (10%)
Language                       : English

Subtitle                       : Yes (English)
Source                         : 720p.BluRay.DTS.x264-HiDt (Thanks)

Screenshots:
 
image 
image 
image 
image 
image 
image 
image 
image

----------------------------------------------------------------------------------------------------


Encoded using revolutionary 10bit encoding, which enables us to provide you more crispier 
and sharper images at small sizes, just make sure you follow our instructions without a fault.
Recommend to you to use latest version of VLC player. Install K-Lite Codec Pack or shark007 codecs
in case of any kind of problem in playback (For non-VLC Media Player users). Alternatively, install
Core AVC codecs, the fastest decoder that there is coupled with Community Center Codec Pack and play
on Windows Media Player Classic. Check sample to be sure.
Enjoy!

Encoder Notes:Looking For Early Access To Anything You Can Provide DVDScr, R5, DVDR, BluRay, Direct
Audio, Music Releases and Seedboxes. We require dedicated servers, so as to do more 
and fast releases of movies.
If You Got anything to offer please contact us at "prg@hush.com".

Face book Fan Page:   
http://www.fb.me/p2pdl		
Percy Jackson And The Lightning Thief 2010 BRRip 720p x264 AAC - PRiSTiNE [P2PDL]/Percy Jackson And The Lightning Thief 2010 BRRip 720p x264 AAC - PRiSTiNE/Percy Jackson And The Lightning Thief 2010 BRRip 720p x264 AAC - PRiSTiNE.mp4 734.31 MB
Percy Jackson And The Lightning Thief 2010 BRRip 720p x264 AAC - PRiSTiNE [P2PDL]/Sample.mp4 14.326 MB
Percy Jackson And The Lightning Thief 2010 BRRip 720p x264 AAC - PRiSTiNE [P2PDL]/Percy Jackson And The Lightning Thief 2010 BRRip 720p x264 AAC - PRiSTiNE/Percy Jackson And The Lightning Thief 2010 BRRip 720p x264 AAC - PRiSTiNE.srt 87.359 KB
Gathering some info...

Register and log in Isohunt and see no captcha anymore!

4000 symbols left
Hash 359e7f652feddfb8752429f65cb53183e6de4b86

Related torrents for "Percy Jackson And The Lightning Thief 2010 BRRip 720p x264 AAC - PRiSTiNE [P2PDL]"

Torrent search:

x264 hd 2010 bd