imdb
rating

5.7
Save the Date

Save the Date (2012)

Comedy, Drama, Romance

Full description
quality   dvdrip x264 hd bd screener

Save.the.Date.2012 BRRip XViD juggs

Size 746.947 MB   10 seeders     Added 2013-04-23 20:31:28

Stream torrent
Starting‥ You need BitLord! Get it from BitLord.com
To download or stream you need BitLord. Visit them at BitLord.com
Source : CHD(thanks)
 
http://www.imdb.com/title/tt1965065/

Format                                   : AVI
Format/Info                              : Audio Video Interleave
File size                                : 699 MiB
Duration                                 : 1h 36mn
Overall bit rate                         : 1 012 Kbps
Writing library                          : VirtualDub build 32842/release

Video
ID                                       : 0
Format                                   : MPEG-4 Visual
Format profile                           : Advanced Simple@L5
Format settings, BVOP                    : 2
Format settings, QPel                    : No
Format settings, GMC                     : No warppoints
Format settings, Matrix                  : Default (H.263)
Muxing mode                              : Packed bitstream
Codec ID                                 : XVID
Codec ID/Hint                            : XviD
Duration                                 : 1h 36mn
Bit rate                                 : 874 Kbps
Width                                    : 640 pixels
Height                                   : 352 pixels
Display aspect ratio                     : 16:9
Frame rate                               : 24.000 fps
Color space                              : YUV
Chroma subsampling                       : 4:2:0
Bit depth                                : 8 bits
Scan type                                : Progressive
Compression mode                         : Lossy
Bits/(Pixel*Frame)                       : 0.162
Stream size                              : 604 MiB (86%)
Writing library                          : XviD 1.2.0.dev47 (UTC 2006-11-01)

Audio
ID                                       : 1
Format                                   : MPEG Audio
Format version                           : Version 1
Format profile                           : Layer 3
Codec ID                                 : 55
Codec ID/Hint                            : MP3
Duration                                 : 1h 36mn
Bit rate mode                            : Constant
Bit rate                                 : 128 Kbps
Channel(s)                               : 2 channels
Sampling rate                            : 44.1 KHz
Compression mode                         : Lossy
Stream size                              : 88.5 MiB (13%)
Alignment                                : Split accross interleaves
Interleave, duration                     : 42 ms (1.00 video frame)
Interleave, preload duration             : 500 ms
Writing library                          : LAME3.99r
Encoding settings                        : -m s -V 4 -q 3 -lowpass 17 -b 128

Plot
Sarah begins to confront her shortcomings after she rejects her boyfriend's hasty proposal and soon finds herself in a rebound romance. Meanwhile, her sister Beth is immersed in the details of her wedding. 

 
image 
image 
image		
Save.the.Date.2012 BRRip XViD juggs/Save.the.Date.2012 BRRip XViD juggs.avi 733.072 MB
Save.the.Date.2012 BRRip XViD juggs/Torrent Downloaded From ExtraTorrent.com.txt 339 B
Save.the.Date.2012 BRRip XViD juggs/sample.avi 13.875 MB
Gathering some info...

Register and log in Isohunt and see no captcha anymore!

4000 symbols left
Hash 0a3dfb22002e1f2f88c1705f872ead5f25f4a953

Related torrents for "Save.the.Date.2012 BRRip XViD juggs"

Torrent search:

2012 bd