Last

Last (2015)

Action, Drama, Thriller

Full description

The Last Stand 2013 720p BRRip x264 MP4 AAC-CC

Size 2.994 GB   0 seeders     Added 2013-04-24 02:17:27

Stream torrent
Starting‥ You need BitLord! Get it from 1BitLord.com
To download or stream you need BitLord. Visit them at BitLord.com
 http://www.imdb.com/title/tt1549920/

Source: The.Last.Stand.2013.720p.BluRay.x264-DAA Thanks!

Subs: Bosnian, Brazilian, Croatian, Dutch, English, Farsi-Persian, Greek, Indonesian, Portuguese, Romanian, Servian, Vietnamese.

Sample and Screens included.

General
Complete name                            : The Last Stand 2013 720p BRRip x264 MP4 AAC-CC.mp4
Format                                   : MPEG-4
Format profile                           : Base Media
Codec ID                                 : isom
File size                                : 2.76 GiB
Duration                                 : 1h 47mn
Overall bit rate mode                    : Variable
Overall bit rate                         : 3 685 Kbps
Encoded date                             : UTC 2013-04-22 15:28:05
Tagged date                              : UTC 2013-04-22 15:28:05
Writing application                      : Yamb 2.1.0.0 

Video
ID                                       : 1
Format                                   : AVC
Format/Info                              : Advanced Video Codec
Format profile                           : High@L4.1
Format settings, CABAC                   : Yes
Format settings, ReFrames                : 5 frames
Codec ID                                 : avc1
Codec ID/Info                            : Advanced Video Coding
Duration                                 : 1h 47mn
Bit rate                                 : 3 386 Kbps
Maximum bit rate                         : 17.3 Mbps
Width                                    : 1 280 pixels
Height                                   : 536 pixels
Display aspect ratio                     : 2.40:1
Frame rate mode                          : Variable
Frame rate                               : 24.000 fps
Minimum frame rate                       : 16.129 fps
Maximum frame rate                       : 24.390 fps
Color space                              : YUV
Chroma subsampling                       : 4:2:0
Bit depth                                : 8 bits
Scan type                                : Progressive
Bits/(Pixel*Frame)                       : 0.206
Stream size                              : 2.46 GiB (89%)
Writing library                          : x264 core 112
Encoding settings                        : cabac=1 / ref=5 / deblock=1:0:0 / analyse=0x3:0x113 / me=hex / subme=7 / psy=1 / psy_rd=1.00:0.00 / mixed_ref=1 / me_range=16 / chroma_me=1 / trellis=1 / 8x8dct=1 / cqm=0 / deadzone=21,11 / fast_pskip=1 / chroma_qp_offset=-2 / threads=3 / sliced_threads=0 / nr=0 / decimate=1 / interlaced=0 / constrained_intra=0 / bframes=5 / b_pyramid=2 / b_adapt=2 / b_bias=0 / direct=1 / weightb=1 / open_gop=0 / weightp=2 / keyint=240 / keyint_min=24 / scenecut=40 / intra_refresh=0 / rc_lookahead=50 / rc=abr / mbtree=1 / bitrate=3386 / ratetol=1.0 / qcomp=0.60 / qpmin=3 / qpmax=51 / qpstep=4 / ip_ratio=1.40 / aq=1:1.00
Encoded date                             : UTC 2013-04-22 20:40:40
Tagged date                              : UTC 2013-04-22 15:31:50
Color primaries                          : BT.709
Transfer characteristics                 : BT.709
Matrix coefficients                      : BT.709

Audio
ID                                       : 2
Format                                   : AAC
Format/Info                              : Advanced Audio Codec
Format profile                           : LC
Codec ID                                 : 40
Duration                                 : 1h 47mn
Bit rate mode                            : Variable
Bit rate                                 : 384 Kbps
Maximum bit rate                         : 703 Kbps
Channel(s)                               : 6 channels
Channel positions                        : Front: L C R, Side: L R, LFE
Sampling rate                            : 48.0 KHz
Compression mode                         : Lossy
Delay relative to video                  : 83ms
Stream size                              : 294 MiB (10%)
Encoded date                             : UTC 2013-04-22 15:30:58
Tagged date                              : UTC 2013-04-22 15:31:50

Enjoy...

Coming soon: Quiz Show, Dial M for Murder, The Dark Crystal, Maximum Conviction and more..		
The Last Stand 2013 720p BRRip x264 MP4 AAC-CC/Sample/Sample.mp4 28.45 MB
The Last Stand 2013 720p BRRip x264 MP4 AAC-CC/Screens-Info/The Last Stand 2013 720p BRRip x264 MP4 AAC-CC.mp4_snapshot_00.07.44.png 1.168 MB
The Last Stand 2013 720p BRRip x264 MP4 AAC-CC/Screens-Info/The Last Stand 2013 720p BRRip x264 MP4 AAC-CC.mp4_snapshot_00.58.12.png 982.046 KB
Gathering some info...

Register and log in Isohunt and see no captcha anymore!

4000 symbols left
Hash 00a339e3e2f1db47d20937f30cc13af520894cce

Related torrents for "The Last Stand 2013 720p BRRip x264 MP4 AAC-CC"

Torrent search:

x264 hd bd 2013