The Lords Of Salem 2012 DVDRip X264 AC3 5 1 - Neuton

Size 1.682 GB   7 seeders     Added 2013-04-24 03:01:27

Stream torrent
Starting‥ You need BitLord! Get it from 1BitLord.com
10
To download or stream you need BitLord. Visit them at BitLord.com
 http://www.imdb.com/title/tt1731697/

source: not mine got this encode from afree tracker

Format version                           : Version 2
File size                                : 1.57 GiB
Duration                                 : 1h 36mn
Overall bit rate                         : 2 314 Kbps
Encoded date                             : UTC 2013-04-23 16:49:13
Writing application                      : mkvmerge v6.1.0 ('Old Devil') built on Mar  2 2013 14:32:37
Writing library                          : libebml v1.3.0 + libmatroska v1.4.0

Video
ID                                       : 1
Format                                   : AVC
Format/Info                              : Advanced Video Codec
Format profile                           : High@L4.1
Format settings, CABAC                   : Yes
Format settings, ReFrames                : 4 frames
Codec ID                                 : V_MPEG4/ISO/AVC
Duration                                 : 1h 36mn
Bit rate                                 : 1 864 Kbps
Width                                    : 720 pixels
Height                                   : 288 pixels
Display aspect ratio                     : 2.500
Frame rate mode                          : Constant
Frame rate                               : 25.000 fps
Color space                              : YUV
Chroma subsampling                       : 4:2:0
Bit depth                                : 8 bits
Scan type                                : Progressive
Bits/(Pixel*Frame)                       : 0.360
Stream size                              : 1.23 GiB (79%)
Writing library                          : x264 core 130 r2273 b3065e6


Audio
ID                                       : 2
Format                                   : AC-3
Format/Info                              : Audio Coding 3
Mode extension                           : CM (complete main)
Format settings, Endianness              : Big
Codec ID                                 : A_AC3
Duration                                 : 1h 36mn
Bit rate mode                            : Constant
Bit rate                                 : 448 Kbps
Channel(s)                               : 6 channels
Channel positions                        : Front: L C R, Side: L R, LFE
Sampling rate                            : 48.0 KHz
Bit depth                                : 16 bits
Compression mode                         : Lossy
Stream size                              : 311 MiB (19%)
Language                                 : English
Default                                  : Yes
Forced                                   : No
 
image 
image 
image 
image		
The Lords Of Salem 2012 DVDRip X264 AC3 5 1 - Neuton/The.Lord.Of.Salem.2012.DVDRip.X264.AC3-Neuton.mkv 1.682 GB
The Lords Of Salem 2012 DVDRip X264 AC3 5 1 - Neuton/Torrent Downloaded From ExtraTorrent.com.txt 339 B
Gathering some info...

Register and log in Isohunt and see no captcha anymore!

4000 symbols left
Hash 0ec1c8f1c53067ca460d6b9ae020dde0225d56ea

Related torrents for "The Lords Of Salem 2012 DVDRip X264 AC3 5 1 - Neuton"

Torrent search:

dvdrip x264 2012