imdb
rating

7.5
42

42 (2013)

Drama

Full description
quality   dvdrip telesync x264

[ www.Speed.Cd ] - 42 2013 CAM READNFO XViD - JUSTiCE Verified

Size 1.498 GB   0 seeders     Added 2013-04-24 13:46:30

Stream torrent
Starting‥ You need BitLord! Get it from BitLord.com
To download or stream you need BitLord. Visit them at BitLord.com
-
 
http://www.Speed. Cd       the fast  and The Hottest Private Tracker on the net 
http://www.Speed. Cd

Please Seed back to make the speed Faster!!
 ............ NFO .............
-
 
http://www.Speed. Cd42 2013 CAM READNFO XViD - JUSTiCE



SOURCE : 42 2013 CAM VOB'S UnKnOwN


Video and audio both cleaned and given justice.
Check sample and see.....


First off thanks for sharing the vobs ( unknown ).
Vobs themselfs ....YUK,sucked bigtime for a number of reasons :(
There was alot of cam movement,glares was so bad i needed sunglasses on to encode this.
AR,perspective all shot too pieces,loads of noise,colouring ...i could list more.

Anyway decided i like a challenge and accept it ....so first of was to rotate the video to a more
levelled up angle,then used perspective filter to pull the sides and bottom.
From there i cropped 95% of all chair shots and borders due to camera movement ...however it does mean 
there is more video missing/cropped.But imho ...better than having chair shots every two mins.

Once done it was a case of toning down the glare,changing the contrast and brightness levels before 
tweaking the colouring and the smoothing the video noise out.

Finally resized the video to a better res :)
Will say....yes there is a fair bit of video cropped.....yes there is parts the AR is off ....yes there is 
parts the angle is still off.
Basically the movement was that bad it would take a 1000's cuts and different rotated to fix 100% and source 
just isn't worth that effort.

Audio cleaned up in Adobe and resave and remuxed.
Removed most of the noise and got the EQ balanced alot better ...couldn't remove the tapping/clicking sound thats at
the start,but that goes eventually and is not there throughout the whole film ;-)


Video
ID                               : 0
Format                           : MPEG-4 Visual
Format profile                   : Advanced Simple@L5
Format settings, BVOP            : 2
Format settings, QPel            : No
Format settings, GMC             : No warppoints
Format settings, Matrix          : Default (MPEG)
Muxing mode                      : Packed bitstream
Codec ID                         : XVID
Codec ID/Hint                    : XviD
Duration                         : 1h 40mn
Bit rate                         : 1 824 Kbps
Width                            : 720 pixels
Height                           : 288 pixels
Display aspect ratio             : 2.500
Frame rate                       : 29.970 fps
Color space                      : YUV
Chroma subsampling               : 4:2:0
Bit depth                        : 8 bits
Scan type                        : Progressive
Compression mode                 : Lossy
Bits/(Pixel*Frame)               : 0.293
Stream size                      : 1.29 GiB (93%)
Writing library                  : XviD 64

Audio
ID                               : 1
Format                           : MPEG Audio
Format version                   : Version 1
Format profile                   : Layer 3
Mode                             : Joint stereo
Mode extension                   : MS Stereo
Codec ID                         : 55
Codec ID/Hint                    : MP3
Duration                         : 1h 40mn
Bit rate mode                    : Constant
Bit rate                         : 128 Kbps
Channel(s)                       : 2 channels
Sampling rate                    : 44.1 KHz
Compression mode                 : Lossy
Stream size                      : 92.3 MiB (7%)
Alignment                        : Split accross interleaves
Interleave, duration             : 33 ms (1.00 video frame)
Interleave, preload duration     : 500 ms


EXTRA NOTE :

Screenies below show the work done,but also shows how much needed to be cropped
to hide the camera movement..chairs etc.
Still nothing special and no enocde of this source will be !!!
However to the cam lovers this might be of some use ;-) 

[IMG]image[/IMG]
[IMG]image[/IMG]
[IMG]image[/IMG]
[IMG]image[/IMG]		
[ www.Speed.Cd ] - 42 2013 CAM READNFO XViD - JUSTiCE/42 2013 CAM READNFO XViD - JUSTiCE.avi 1.476 GB
[ www.Speed.Cd ] - 42 2013 CAM READNFO XViD - JUSTiCE/42 2013 CAM READNFO XViD - JUSTiCE.nfo 4.001 KB
[ www.Speed.Cd ] - 42 2013 CAM READNFO XViD - JUSTiCE/sample.avi 22.491 MB
Gathering some info...

Register and log in Isohunt and see no captcha anymore!

4000 symbols left
Hash 8c1eabce77922409c75fc10d04f0b2bfd3c05202

Related torrents for "[ www.Speed.Cd ] - 42 2013 CAM READNFO XViD - JUSTiCE"

Torrent search:

cam 2013