imdb
rating

5.0
Deep Dark Canyon

Deep Dark Canyon (2013)

Action, Drama, Thriller

Full description

Deep.Dark.Canyon.2013.DVDRip.XviD-IGUANA

Size 731.034 MB   309 seeders     Added 2013-04-24 15:35:27

Stream torrent
Starting‥ You need BitLord! Get it from BitLord.com
To download or stream you need BitLord. Visit them at BitLord.com

 
http://www.imdb.com/title/tt1646212/


After a hunting accident leaves the town mayor dead, teenage brothers Nate and Skylar go on the run from the mayor's family, who have declared open season on them. 



Directors:
 Abe Levy, Silver Tree 

Writers:
 Abe Levy, Silver Tree 

Stars:
 Ted Levine, Spencer Treat Clark, Nick Eversman

Genres:
  Action |  Drama |  Thriller 

Country:
 USA 

Language:
 English 




Format                                   : AVI
Format/Info                              : Audio Video Interleave
File size                                : 697 MiB
Duration                                 : 1h 29mn
Overall bit rate mode                    : Variable
Overall bit rate                         : 1 087 Kbps
Writing application                      : VirtualDubMod 1.5.10.2 (build 2540/release)
Writing library                          : VirtualDubMod build 2540/release

Video
ID                                       : 0
Format                                   : MPEG-4 Visual
Format profile                           : Advanced Simple@L5
Format settings, BVOP                    : 2
Format settings, QPel                    : No
Format settings, GMC                     : No warppoints
Format settings, Matrix                  : Default (H.263)
Muxing mode                              : Packed bitstream
Codec ID                                 : XVID
Codec ID/Hint                            : XviD
Duration                                 : 1h 29mn
Bit rate                                 : 877 Kbps
Width                                    : 640 pixels
Height                                   : 272 pixels
Display aspect ratio                     : 2.35:1
Frame rate                               : 23.976 fps
Color space                              : YUV
Chroma subsampling                       : 4:2:0
Bit depth                                : 8 bits
Scan type                                : Progressive
Compression mode                         : Lossy
Bits/(Pixel*Frame)                       : 0.210
Stream size                              : 562 MiB (81%)
Writing library                          : XviD 64

Audio
ID                                       : 1
Format                                   : MPEG Audio
Format version                           : Version 1
Format profile                           : Layer 3
Mode                                     : Joint stereo
Codec ID                                 : 55
Codec ID/Hint                            : MP3
Duration                                 : 1h 29mn
Bit rate mode                            : Variable
Bit rate                                 : 192 Kbps
Channel(s)                               : 2 channels
Sampling rate                            : 48.0 KHz
Compression mode                         : Lossy
Stream size                              : 127 MiB (18%)
Alignment                                : Aligned on interleaves
Interleave, duration                     : 24 ms (0.58 video frame)
Interleave, preload duration             : 93 ms
Writing library                          : LAME3.90.
Encoding settings                        : -m j -V 4 -q 2 -lowpass 19.6 --abr 192




    	image
    	image
    	image
    	image
    		
Deep.Dark.Canyon.2013.DVDRip.XviD-IGUANA/iguana-ddcanyon.2013.xvid.avi 731.019 MB
Deep.Dark.Canyon.2013.DVDRip.XviD-IGUANA/iguana-ddcanyon.2013.xvid.nfo 14.653 KB
Deep.Dark.Canyon.2013.DVDRip.XviD-IGUANA/Torrent Downloaded From ExtraTorrent.com.txt 353 B
Gathering some info...

Register and log in Isohunt and see no captcha anymore!

4000 symbols left
Hash 7728ba525a6d4bcbe80072114a16a27660860360

Related torrents for "Deep.Dark.Canyon.2013.DVDRip.XviD-IGUANA"

Torrent search:

dvdrip 2013