Rihanna Ft. Mikky Ekko - Stay [Music Video] 720p [Sbyky].mp4

Size 40.009 MB   20 seeders     Added 2013-04-24 16:46:35

Stream torrent
Starting‚Ä• You need BitLord! Get it from 1BitLord.com
To download or stream you need BitLord. Visit them at BitLord.com
[IMG]image[/IMG]

General
Complete name                            : Rihanna Ft. Mikky Ekko - Stay [Music Video] 720p [Sbyky].mp4
Format                                   : MPEG-4
Format profile                           : Base Media / Version 2
Codec ID                                 : mp42
File size                                : 38.2 MiB
Duration                                 : 4mn 7s
Overall bit rate mode                    : Variable
Overall bit rate                         : 1 293 Kbps
Encoded date                             : UTC 2013-04-08 05:09:10
Tagged date                              : UTC 2013-04-08 05:09:10

Video
ID                                       : 1
Format                                   : AVC
Format/Info                              : Advanced Video Codec
Format profile                           : High@L3.1
Format settings, CABAC                   : Yes
Format settings, ReFrames                : 1 frame
Codec ID                                 : avc1
Codec ID/Info                            : Advanced Video Coding
Duration                                 : 4mn 7s
Bit rate                                 : 1 099 Kbps
Maximum bit rate                         : 1 938 Kbps
Width                                    : 1 280 pixels
Height                                   : 720 pixels
Display aspect ratio                     : 16:9
Frame rate mode                          : Constant
Frame rate                               : 23.976 fps
Color space                              : YUV
Chroma subsampling                       : 4:2:0
Bit depth                                : 8 bits
Scan type                                : Progressive
Bits/(Pixel*Frame)                       : 0.050
Stream size                              : 32.4 MiB (85%)
Tagged date                              : UTC 2013-04-08 05:09:12

Audio
ID                                       : 2
Format                                   : AAC
Format/Info                              : Advanced Audio Codec
Format profile                           : LC
Codec ID                                 : 40
Duration                                 : 4mn 7s
Bit rate mode                            : Variable
Bit rate                                 : 192 Kbps
Maximum bit rate                         : 202 Kbps
Channel(s)                               : 2 channels
Channel positions                        : Front: L R
Sampling rate                            : 44.1 KHz
Compression mode                         : Lossy
Stream size                              : 5.66 MiB (15%)
Title                                    : IsoMedia File Produced by Google, 5-11-2011
Encoded date                             : UTC 2013-04-08 05:09:11
Tagged date                              : UTC 2013-04-08 05:09:12

Shared By Sbyky
[IMG]image[/IMG]
[IMG]image[/IMG]		
Rihanna Ft. Mikky Ekko - Stay [Music Video] 720p [Sbyky].mp4 40.009 MB
Gathering some info...

Register and log in Isohunt and see no captcha anymore!

4000 symbols left
Hash bd0e241c4123321a08222512430c270db1084476

Related torrents for "Rihanna Ft. Mikky Ekko - Stay [Music Video] 720p [Sbyky].mp4"