imdb
rating

6.2
Mama

Mama (2013)

Horror

Full description
quality   dvdr dvdrip hd telesync

[ www.Speed.Cd ] - Mama 2013 BRRip 720p x264 AAC - PRiSTiNE

Size 677.166 MB   0 seeders     Added 2013-04-24 21:34:36

Stream torrent
Starting‥ You need BitLord! Get it from BitLord.com
To download or stream you need BitLord. Visit them at BitLord.com
-
 
http://www.Speed. Cd       the fast  and The Hottest Private Tracker on the net 
http://www.Speed. Cd

Please Seed back to make the speed Faster!!
 ............ NFO .............
-
 
http://www.Speed. Cd                                                                                                   
                                                                                                  
                                                                                                   
PPPPPPPPPPPPPPPPP   222222222222222   PPPPPPPPPPPPPPPPP  DDDDDDDDDDDDD     LLLLLLLLLLL             
P::::::::::::::::P 2::::::MAKE!::::22 P:::::::SAVE!::::P D::::SHARE!::DDD  L:::::::::L             
P::::::PPPPPP:::::P2::::::222222:::::2P::::::PPPPPP:::::PD:::::::::::::::DDL:::::::::L             
PP:::::P     P:::::2222222     2:::::2PP:::::P     P:::::DDD:::::DDDDD:::::LL:::::::LL             
  P::::P     P:::::P           2:::::2  P::::P     P:::::P D:::::D    D:::::DL:::::L               
  P::::P     P:::::P           2:::::2  P::::P     P:::::P D:::::D     D:::::L:::::L               
  P::::PPPPPP:::::P         2222::::2   P::::PPPPPP:::::P  D:::::D     D:::::L:::::L               
  P:::::::::::::PP     22222::::::22    P:::::::::::::PP   D:::::D     D:::::L:::::L               
  P::::PPPPPPPPP     22::::::::222      P::::PPPPPPPPP     D:::::D     D:::::L:::::L               
  P::::P            2:::::22222         P::::P             D:::::D     D:::::L:::::L               
  P::::P           2:::::2              P::::P             D:::::D     D:::::L:::::L               
  P::::P           2:::::2              P::::P             D:::::D    D:::::DL:::::L         LLLLLL
PP::::::PP         2:::::2       22222PP::::::PP         DDD:::::DDDDD:::::LL:::::::LLLLLLLLL:::::L
P::::::::P         2::::::2222222:::::P::::::::P         D:::::::::::::::DDL::::::::::::::::::::::L
P::::::::P         2:::::Vitamin_X::::P::VYTO::P         D::::ViZNU:::DDD  L::::::::::::::::::::::L
PPPPPPPPP PRiSTiNE 2222222222222222222PPPPPPPPP PRiSTiNE DDDDDDDDDDDDD     LLLLLLLLLLLLLLLLLLLLLLLL
                                                                                                   
                                                                                                   
                                                                                                   
_________________________  Visit us at _________________________
  
http://p2pdl.com  ____________________________  http://p2pdl.com

 
image


Mama 2013 BRRip 720p x264 AAC - PRiSTiNE

Genre: Horror
Plot: Annabel and Lucas are faced with the challenge of 
raising his young nieces that were left alone in the 
forest for 5 years.... but how alone were they?
Director: Andrs Muschietti
Stars: Jessica Chastain, Nikolaj Coster-Waldau, Megan Charpentier
Rated: Rated PG-13 for violence and terror, some disturbing images and thematic elements

Info: 
http://www.imdb.com/title/tt2023587/

Trailer:

General
Complete name                  : Mama 2013 BRRip 720p x264 AAC - PRiSTiNE.mp4
Format                         : MPEG-4
File size                      : 646 MiB
Duration                       : 1h 40mn
Overall bit rate mode          : Variable
Overall bit rate               : 902 Kbps

Video
Format                         : AVC
Format/Info                    : Advanced Video Codec
Format profile                 : High 10@L4.1
Bit rate                       : 819 Kbps
Width                          : 1 280 pixels
Height                         : 688 pixels
Display aspect ratio           : 1.85:1
Frame rate mode                : Constant
Frame rate                     : 23.976 fps
Bit depth                      : 10 bits
Stream size                    : 586 MiB (91%)
Writing library                : x264 core 130 r2273 b3065e6

Audio
Format                         : AAC
Bit rate mode                  : Variable
Bit rate                       : 79.9 Kbps
Channel(s)                     : 2 channels
Channel positions              : Front: L R
Sampling rate                  : 48.0 KHz / 24.0 KHz
Stream size                    : 57.2 MiB (9%)

Subtitle                       : Yes (English)
Source                         : 720p.BluRay.DTS-5.1.x264-AXED (Thanks)

Screenshots:
 
image 
image 
image 
image 
image

----------------------------------------------------------------------------------------------------


Encoded using revolutionary 10bit encoding, which enables us to provide you more crispier 
and sharper images at small sizes, just make sure you follow our instructions without a fault.
Recommend to you to use latest version of VLC player. Install K-Lite Codec Pack or shark007 codecs
in case of any kind of problem in playback (For non-VLC Media Player users). Alternatively, install
Core AVC codecs, the fastest decoder that there is coupled with Community Center Codec Pack and play
on Windows Media Player Classic. Check sample to be sure.
Enjoy!

Encoder Notes:Looking For Early Access To Anything You Can Provide DVDScr, R5, DVDR, BluRay, Direct
Audio, Music Releases and Seedboxes. We require dedicated servers, so as to do more 
and fast releases of movies.
If You Got anything to offer please contact us at "prg@hush.com".

Face book Fan Page:   
http://www.fb.me/p2pdl		
[ www.Speed.Cd ] - Mama 2013 BRRip 720p x264 AAC - PRiSTiNE/Mama 2013 BRRip 720p x264 AAC - PRiSTiNE.mp4 677.113 MB
[ www.Speed.Cd ] - Mama 2013 BRRip 720p x264 AAC - PRiSTiNE/Mama 2013 BRRip 720p x264 AAC - PRiSTiNE.nfo 5.453 KB
[ www.Speed.Cd ] - Mama 2013 BRRip 720p x264 AAC - PRiSTiNE/Mama 2013 BRRip 720p x264 AAC - PRiSTiNE.srt 47.335 KB
Gathering some info...

Register and log in Isohunt and see no captcha anymore!

4000 symbols left
Hash 2f34ac2f77c7696e779a8a59cbb6ab9dd07cf7ec

Related torrents for "[ www.Speed.Cd ] - Mama 2013 BRRip 720p x264 AAC - PRiSTiNE"

Torrent search:

x264 hd bd 2013