imdb
rating

6.2
Mama

Mama (2013)

Horror

Full description
quality   dvdr dvdrip hd telesync

Mama 2013 BRRIP Xvid AC3-BHRG

Size 1.685 GB   1 seeders     Added 2013-04-24 21:48:35

Stream torrent
Starting‥ You need BitLord! Get it from BitLord.com
To download or stream you need BitLord. Visit them at BitLord.com
File size                                : 1.55 GiB
Duration                                 : 1h 40mn
Overall bit rate                         : 2 217 Kbps

Video
ID                                       : 0
Format                                   : MPEG-4 Visual
Format profile                           : Advanced Simple@L5
Format settings, BVOP                    : 2
Format settings, QPel                    : No
Format settings, GMC                     : No warppoints
Format settings, Matrix                  : Default (H.263)
Codec ID                                 : XVID
Codec ID/Hint                            : XviD
Duration                                 : 1h 40mn
Bit rate                                 : 1 761 Kbps
Width                                    : 720 pixels
Height                                   : 384 pixels
Display aspect ratio                     : 1.85:1
Frame rate                               : 23.976 fps
Color space                              : YUV
Chroma subsampling                       : 4:2:0
Bit depth                                : 8 bits
Scan type                                : Progressive
Compression mode                         : Lossy
Bits/(Pixel*Frame)                       : 0.266
Stream size                              : 1.23 GiB (79%)
Writing library                          : XviD 1.2.1 (UTC 2008-12-04)

Audio
ID                                       : 1
Format                                   : AC-3
Format/Info                              : Audio Coding 3
Mode extension                           : CM (complete main)
Format settings, Endianness              : Big
Codec ID                                 : 2000
Duration                                 : 1h 40mn
Bit rate mode                            : Constant
Bit rate                                 : 448 Kbps
Channel(s)                               : 6 channels
Channel positions                        : Front: L C R, Side: L R, LFE
Sampling rate                            : 48.0 KHz
Bit depth                                : 16 bits
Compression mode                         : Lossy
Stream size                              : 321 MiB (20%)
Alignment                                : Aligned on interleaves
Interleave, duration                     : 64 ms (1.53 video frames)
Interleave, preload duration             : 192 ms
Title                                    : Mama.2013.720p.BluRay.DTS-5.1.x264-AXED - [0]

Screens: 
image 
image 
image 
image		
Mama 2013 BRRIP Xvid AC3-BHRG/www.RARBG.com.txt 45 B
Mama 2013 BRRIP Xvid AC3-BHRG/Mama 2013 BRRIP Xvid AC3-BHRG.avi 1.664 GB
Mama 2013 BRRIP Xvid AC3-BHRG/Mama 2013 BRRIP Xvid AC3-BHRG sample.avi 20.398 MB
Gathering some info...

Register and log in Isohunt and see no captcha anymore!

4000 symbols left
Hash bdf562d53a83c82f5a5bfb9078230ad66bfdc9c7

Related torrents for "Mama 2013 BRRIP Xvid AC3-BHRG"

Torrent search:

bd 2013