L.Ordre.Et.La.Morale.2011.BRRip.XviD-HORiZON

Size 1.883 GB   5 seeders     Added 2013-04-24 22:32:51

Stream torrent
Starting‚Ä• You need BitLord! Get it from 1BitLord.com
To download or stream you need BitLord. Visit them at BitLord.com
-------------------------------------------- 
http://www.imdb.com/title/tt1242521/

136 min  -  Action | Drama | History  -  16 November 2011 (France)
7,0 Your rating:    -/10   Ratings: 7,0/10 from 933 users 

SUBTiTLES.......: Bulgarian

Language : French

Format                           : AVI
Format/Info                      : Audio Video Interleave
File size                        : 1.75 GiB
Duration                         : 2h 14mn
Overall bit rate                 : 1 866 Kbps
Writing library                  : The best and REALLY easy backup tool

Video
ID                               : 0
Format                           : MPEG-4 Visual
Format profile                   : Advanced Simple@L5
Format settings, BVOP            : 1
Format settings, QPel            : No
Format settings, GMC             : No warppoints
Format settings, Matrix          : Default (MPEG)
Muxing mode                      : Packed bitstream
Codec ID                         : XVID
Codec ID/Hint                    : XviD
Duration                         : 2h 14mn
Bit rate                         : 1 408 Kbps
Width                            : 688 pixels
Height                           : 288 pixels
Display aspect ratio             : 2.40:1
Frame rate                       : 23.976 fps
Color space                      : YUV
Chroma subsampling               : 4:2:0
Bit depth                        : 8 bits
Scan type                        : Progressive
Compression mode                 : Lossy
Bits/(Pixel*Frame)               : 0.296
Stream size                      : 1.32 GiB (75%)
Writing library                  : XviD 1.2.0.dev47 (UTC 2006-11-01)

Audio
ID                               : 1
Format                           : AC-3
Format/Info                      : Audio Coding 3
Mode extension                   : CM (complete main)
Codec ID                         : 2000
Duration                         : 2h 14mn
Bit rate mode                    : Constant
Bit rate                         : 448 Kbps
Channel(s)                       : 6 channels
Channel positions                : Front: L C R, Side: L R, LFE
Sampling rate                    : 48.0 KHz
Bit depth                        : 16 bits
Compression mode                 : Lossy
Stream size                      : 431 MiB (24%)
Alignment                        : Split accross interleaves
Interleave, duration             : 42 ms (1.00 video frame)
Interleave, preload duration     : 500 ms
--------------------------------------------

More at   
http://publichash.com/

--------------------------------------------			
L.Ordre.Et.La.Morale.2011.BRRip.XviD-HORiZON/L.Ordre.Et.La.Morale.2011.BRRip.XviD-HORiZON.avi 1.883 GB
L.Ordre.Et.La.Morale.2011.BRRip.XviD-HORiZON/L.Ordre.Et.La.Morale.2011.BRRip.XviD-HORiZON.nfo 2.46 KB
L.Ordre.Et.La.Morale.2011.BRRip.XviD-HORiZON/L.Ordre.Et.La.Morale.2011.BRRip.XviD-HORiZON.srt 111.528 KB
Gathering some info...

Register and log in Isohunt and see no captcha anymore!

4000 symbols left
Hash b941e95e26d663aaf3ef9c3bb2f14e16aeff899d