PLAYBOY - Os Melhores Making ofs3 DvDRip( x264 AVCHD MKV 1280x720 ) by fantasma

Size 1.641 GB   0 seeders     Added 2013-04-24 23:28:34

To download or stream you need BitLord. Visit them at BitLord.com
Description
Format : Matroska
Format version : Version 4 / Version 2
File size : 1.50 GiB
Duration : 1h 12mn
Overall bit rate mode : Variable
Overall bit rate : 2 956 Kbps
Encoded date : UTC 2013-04-23 13:47:40
Writing application : mkvmerge v6.1.0 (Old Devil) built on Mar 2 2013 14:32:37
Writing library : libebml v1.3.0 + libmatroska v1.4.0
Video
ID : 1
Format : AVC
Format/Info : Advanced Video Codec
Format profile : High@L4.1
Format settings, CABAC : Yes
Format settings, ReFrames : 3 frames
Frame mode : Frame doubling
Codec ID : V_MPEG4/ISO/AVC
Duration : 1h 12mn
Bit rate mode : Variable
Bit rate : 2 570 Kbps
Maximum bit rate : 14.0 Mbps
Width : 1 280 pixels
Height : 720 pixels
Display aspect ratio : 16:9
Frame rate mode : Constant
Frame rate : 29.970 fps
Color space : YUV
Chroma subsampling : 4:2:0
Bit depth : 8 bits
Scan type : Progressive
Bits/(Pixel*Frame) : 0.093
Stream size : 1.27 GiB (85%)
Title : Os Melhores Making ofs 3 - by fantasma
Writing library : x264 core 130 r2273 b3065e6
Encoding settings : cabac=1 / ref=3 / deblock=1:0:0 / analyse=0x3:0x113 / me=hex / subme=7 / psy=1 / psy_rd=1.00:0.00 / mixed_ref=1 / me_range=16 / chroma_me=1 / trellis=1 / 8x8dct=1 / cqm=0 / deadzone=21,11 / fast_pskip=1 / chroma_qp_offset=-2 / threads=3 / lookahead_threads=1 / sliced_threads=0 / slices=4 / nr=0 / decimate=1 / interlaced=0 / bluray_compat=1 / constrained_intra=0 / bframes=3 / b_pyramid=1 / b_adapt=1 / b_bias=0 / direct=1 / weightb=1 / open_gop=1 / weightp=1 / keyint=300 / keyint_min=1 / scenecut=40 / intra_refresh=0 / rc_lookahead=40 / rc=2pass / mbtree=1 / bitrate=2570 / ratetol=1.0 / qcomp=0.60 / qpmin=0 / qpmax=69 / qpstep=4 / cplxblur=20.0 / qblur=0.5 / vbv_maxrate=14000 / vbv_bufsize=14000 / nal_hrd=vbr / ip_ratio=1.40 / aq=1:1.00
Language : Portuguese
Default : Yes
Forced : No
Color primaries : BT.709
Transfer characteristics : BT.709
Matrix coefficients : BT.709
Audio
ID : 2
Format : AC-3
Format/Info : Audio Coding 3
Mode extension : CM (complete main)
Format settings, Endianness : Big
Codec ID : A_AC3
Duration : 1h 12mn
Bit rate mode : Constant
Bit rate : 384 Kbps
Channel(s) : 2 channels
Channel positions : Front: L R
Sampling rate : 48.0 KHz
Bit depth : 16 bits
Compression mode : Lossy
Stream size : 199 MiB (13%)
Title : Portugues - by fantasma
Language : Portuguese
Default : Yes
Forced : No		
PLAYBOY - Os Melhores Making ofs3 DvDRip( x264 AVCHD MKV 1280x720 ) by fantasma/Making3.part09.rar 99.615 MB
PLAYBOY - Os Melhores Making ofs3 DvDRip( x264 AVCHD MKV 1280x720 ) by fantasma/Making3.part02.rar 99.615 MB
PLAYBOY - Os Melhores Making ofs3 DvDRip( x264 AVCHD MKV 1280x720 ) by fantasma/Making3.part03.rar 99.615 MB
Gathering some info...

Register and log in Isohunt and see no captcha anymore!

4000 symbols left
Hash 58564cc4f327da2bcd332cebed09f3663c86e008