imdb
rating

7.9
The Insider

The Insider (1999)

Drama, Thriller

Full description

The Insider [1999] BRRip XviD - CODY

Size 1.183 GB   0 seeders     Added 2013-04-25 01:02:37

Stream torrent
Starting‥ You need BitLord! Get it from 1BitLord.com
To download or stream you need BitLord. Visit them at BitLord.com
General
Complete name                            : The Insider [1999] BRRip XviD - CODY.avi
Format                                   : AVI
Format/Info                              : Audio Video Interleave
File size                                : 1.10 GiB
Duration                                 : 2h 37mn
Overall bit rate                         : 999 Kbps
Writing application                      : VirtualDubMod 1.5.10.3 | www.virtualdub-fr.org || (build 2550/release)
Writing library                          : VirtualDubMod build 2550/release

Video
ID                                       : 0
Format                                   : MPEG-4 Visual
Format profile                           : Advanced Simple@L5
Format settings, BVOP                    : 4
Format settings, QPel                    : No
Format settings, GMC                     : No warppoints
Format settings, Matrix                  : Default (H.263)
Codec ID                                 : XVID
Codec ID/Hint                            : XviD
Duration                                 : 2h 37mn
Bit rate                                 : 862 Kbps
Width                                    : 720 pixels
Height                                   : 304 pixels
Display aspect ratio                     : 2.35:1
Frame rate                               : 23.976 fps
Color space                              : YUV
Chroma subsampling                       : 4:2:0
Bit depth                                : 8 bits
Scan type                                : Progressive
Compression mode                         : Lossy
Bits/(Pixel*Frame)                       : 0.164
Stream size                              : 972 MiB (86%)
Writing library                          : XviD 65

Audio
ID                                       : 1
Format                                   : MPEG Audio
Format version                           : Version 1
Format profile                           : Layer 3
Codec ID                                 : 55
Codec ID/Hint                            : MP3
Duration                                 : 2h 37mn
Bit rate mode                            : Constant
Bit rate                                 : 128 Kbps
Channel(s)                               : 2 channels
Sampling rate                            : 48.0 KHz
Compression mode                         : Lossy
Stream size                              : 144 MiB (13%)
Alignment                                : Aligned on interleaves
Interleave, duration                     : 42 ms (1.00 video frame)
Interleave, preload duration             : 504 ms
Writing library                          : LAME3.99r
Encoding settings                        : -m s -V 4 -q 2 -lowpass 17 -b 128

Audio language                           : English

IMDB link:                                 http://www.imdb.com/title/tt0140352/

Subtitles included                       : Romanian

Please seed at least 1,5:1 . This way this torrent has a chance to survive !

Thanks . Enjoy !!				
The Insider [1999] BRRip XviD - CODY/Cover.jpg 163.075 KB
The Insider [1999] BRRip XviD - CODY/Info_by_Cody.txt 5.574 KB
The Insider [1999] BRRip XviD - CODY/The Insider [1999] BRRip XviD - CODY.avi 1.182 GB
Gathering some info...

Register and log in Isohunt and see no captcha anymore!

4000 symbols left
Hash c48005e18a6ad7da5b8702046987e980e6bf5132

Related torrents for "The Insider [1999] BRRip XviD - CODY"

Torrent search:

1999 bd