imdb
rating

7.5
Elizabeth

Elizabeth (1998)

Drama, History

Full description

The View_Elizabeth Mitchell_720p.HDTV.x264_2013_04_15_TTL

Size 115.389 MB   0 seeders     Added 2013-04-25 02:16:35

Stream torrent
Starting‥ You need BitLord! Get it from BitLord.com
To download or stream you need BitLord. Visit them at BitLord.com
As per request. 										

											

Enjoy and please share.										

											

TTLTTLTTLTTLTTLTTLTTLTTLTTLTTLTTLTTLTTLTTLTTLTTLTTL						

											

The View_Elizabeth Mitchell_720p.HDTV.x264_2013_04_15_TTL.mkv
Format                           : Matroska
File size                        : 110 MiB
Duration                         : 4mn 48s
Overall bit rate                 : 3 199 Kbps
Writing application              : HandBrake 0.9.5
Writing library                  : libmkv 0.6.4.1

Video
ID                               : 1
Format                           : AVC
Format/Info                      : Advanced Video Codec
Format profile                   : High@L3.2
Format settings, CABAC           : Yes
Format settings, ReFrames        : 4 frames
Muxing mode                      : Container profile=Unknown@3.2
Codec ID                         : V_MPEG4/ISO/AVC
Duration                         : 4mn 48s
Bit rate                         : 3 008 Kbps
Nominal bit rate                 : 3 064 Kbps
Width                            : 1 280 pixels
Height                           : 720 pixels
Display aspect ratio             : 16:9
Frame rate mode                  : Variable
Frame rate                       : 59.940 fps
Resolution                       : 8 bits
Colorimetry                      : 4:2:0
Scan type                        : Progressive
Bits/(Pixel*Frame)               : 0.054
Stream size                      : 103 MiB (94%)
Writing library                  : x264 core 112

Audio                            : English
ID                               : 2
Format                           : AC-3
Format/Info                      : Audio Coding 3
Codec ID                         : A_AC3
Duration                         : 4mn 48s
Bit rate mode                    : Constant
Bit rate                         : 128 Kbps
Channel(s)                       : 2 channels
Channel positions                : L R
Sampling rate                    : 48.0 KHz
Stream size                      : 4.40 MiB (4%)

		
The View_Elizabeth Mitchell_720p.HDTV.x264_2013_04_15_TTL/The View_Elizabeth Mitchell_720p.HDTV.x264_2013_04_15_TTL.mkv 115.387 MB
The View_Elizabeth Mitchell_720p.HDTV.x264_2013_04_15_TTL/The View_Elizabeth Mitchell_720p.HDTV.x264_2013_04_15_TTL.txt 1.917 KB
Gathering some info...

Register and log in Isohunt and see no captcha anymore!

4000 symbols left
Hash 15e77e184474c4346f354c3ec5c61c328477e0ae

Related torrents for "The View_Elizabeth Mitchell_720p.HDTV.x264_2013_04_15_TTL"

Torrent search:

hdtv