Me Mamu and 7 (2013) - WEBRip H.264 AAC MP4 TEAM IcTv xclusive.mp4

Size 495.783 MB   0 seeders     Added 2013-04-25 03:16:34

Stream torrent
Starting‥ You need BitLord! Get it from BitLord.com
To download or stream you need BitLord. Visit them at BitLord.com
 image 
image 
image 
image 
image 
image

Media Info - 
Video
Format : AVC
Format/Info : Advanced Video Codec
Format profile : Baseline@L3.0
Format settings, CABAC : No
Format settings, ReFrames : 1 frame
Codec ID : avc1
Codec ID/Info : Advanced Video Coding
Duration : 1h 52mn
Bit rate : 492 Kbps
Maximum bit rate : 2 200 Kbps
Width : 640 pixels
Height : 360 pixels
Display aspect ratio : 16:9
Frame rate mode : Constant
Frame rate : 25.000 fps
Color space : YUV
Chroma subsampling : 4:2:0
Bit depth : 8 bits
Scan type : Progressive
Bits/(Pixel*Frame) : 0.085
Stream size : 394 MiB (83%)

Audio
Format : AAC
Format/Info : Advanced Audio Codec
Format profile : LC
Codec ID : 40
Duration : 1h 52mn
Bit rate mode : Variable
Bit rate : 96.0 Kbps
Maximum bit rate : 103 Kbps
Channel(s) : 2 channels
Channel positions : Front: L R
Sampling rate : 44.1 KHz
Compression mode : Lossy
Stream size : 76.9 MiB (16%)


Ripper : Lottery

Seeding 24x7... Extreme Seeding...


Enjoy!
		
Me Mamu and 7 (2013) - WEBRip H.264 AAC MP4 TEAM IcTv xclusive.mp4 495.783 MB
Gathering some info...

Register and log in Isohunt and see no captcha anymore!

4000 symbols left
Hash d1b69f76cccc1f03fba03c88394f02aad7c7cc49