imdb
rating

7.2
Now Is Good

Now Is Good (2012)

Drama, Romance

Full description

Now.Is.Good.2012.DVDRip.XviD.5rFF

Size 1.481 GB   0 seeders     Added 2013-04-25 04:01:34

Stream torrent
Starting‥ You need BitLord! Get it from 1BitLord.com
To download or stream you need BitLord. Visit them at BitLord.com
--------------------------------------------
 
http://www.imdb.com/title/tt1937264/

103 min  -  Drama | Romance  -  19 September 2012 (UK)
6,8 Your rating:    -/10   Ratings: 6,8/10 from 5 962 users

SUBTiTLES.......: Bulgarian

Language : English

Format                           : AVI
Format/Info                      : Audio Video Interleave
File size                        : 1.37 GiB
Duration                         : 1h 42mn
Overall bit rate                 : 1 898 Kbps
Writing application              : VirtualDubMod 1.5.10.2 (build 2540/release)
Writing library                  : VirtualDubMod build 2540/release

Video
ID                               : 0
Format                           : MPEG-4 Visual
Format profile                   : Advanced Simple@L5
Format settings, BVOP            : 2
Format settings, QPel            : No
Format settings, GMC             : No warppoints
Format settings, Matrix          : Default (H.263)
Muxing mode                      : Packed bitstream
Codec ID                         : XVID
Codec ID/Hint                    : XviD
Duration                         : 1h 42mn
Bit rate                         : 1 441 Kbps
Width                            : 720 pixels
Height                           : 304 pixels
Display aspect ratio             : 2.35:1
Frame rate                       : 23.976 fps
Color space                      : YUV
Chroma subsampling               : 4:2:0
Bit depth                        : 8 bits
Scan type                        : Progressive
Compression mode                 : Lossy
Bits/(Pixel*Frame)               : 0.275
Stream size                      : 1.04 GiB (76%)
Writing library                  : XviD 64

Audio
ID                               : 1
Format                           : AC-3
Format/Info                      : Audio Coding 3
Mode extension                   : CM (complete main)
Codec ID                         : 2000
Duration                         : 1h 42mn
Bit rate mode                    : Constant
Bit rate                         : 448 Kbps
Channel(s)                       : 6 channels
Channel positions                : Front: L C R, Side: L R, LFE
Sampling rate                    : 48.0 KHz
Bit depth                        : 16 bits
Compression mode                 : Lossy
Stream size                      : 330 MiB (24%)
Alignment                        : Split accross interleaves
Interleave, duration             : 42 ms (1.00 video frame)
Interleave, preload duration     : 500 ms

--------------------------------------------

More at   
http://publichash.com/

--------------------------------------------		
Now.Is.Good.2012.DVDRip.XviD.5rFF/5rFF-nigood.avi 1.466 GB
Now.Is.Good.2012.DVDRip.XviD.5rFF/5rFF-nigood.srt 74.826 KB
Now.Is.Good.2012.DVDRip.XviD.5rFF/5rFF.nfo 3.958 KB
Gathering some info...

Register and log in Isohunt and see no captcha anymore!

4000 symbols left
Hash f6533eca7fbdd2d0e4afe520b5234a0dd6395baa

Related torrents for "Now.Is.Good.2012.DVDRip.XviD.5rFF"

Torrent search:

dvdrip 2012