imdb
rating

6.6
Promised Land

Promised Land (2012)

Drama

Full description
quality   dvdrip fullhd web-dl x264 hd bd

Promised Land 2012 BRRip XviD AC3-SANTi

Size 1.536 GB   89 seeders     Added 2013-04-25 04:16:35

Stream torrent
Starting‥ You need BitLord! Get it from BitLord.com
To download or stream you need BitLord. Visit them at BitLord.com
--------------------------------------------
 
http://www.imdb.com/title/tt2091473/

106 min  -  Drama  -  4 January 2013 (USA)
6,5 Your rating:    -/10   Ratings: 6,5/10 from 6 576 users   Metascore: 55/100 

SUBTiTLES.......: Bulgarian

Language : English

Format                           : AVI
Format/Info                      : Audio Video Interleave
File size                        : 1.43 GiB
Duration                         : 1h 46mn
Overall bit rate                 : 1 921 Kbps
Writing application              : VirtualDubMod 1.5.10.3
Writing library                  : VirtualDubMod build 2550/release

Video
ID                               : 0
Format                           : MPEG-4 Visual
Format profile                   : Advanced Simple@L5
Format settings, BVOP            : 3
Format settings, QPel            : No
Format settings, GMC             : No warppoints
Format settings, Matrix          : Default (MPEG)
Codec ID                         : XVID
Codec ID/Hint                    : XviD
Duration                         : 1h 46mn
Bit rate                         : 1 528 Kbps
Width                            : 720 pixels
Height                           : 384 pixels
Display aspect ratio             : 1.875
Frame rate                       : 23.976 fps
Color space                      : YUV
Chroma subsampling               : 4:2:0
Bit depth                        : 8 bits
Scan type                        : Progressive
Compression mode                 : Lossy
Bits/(Pixel*Frame)               : 0.231
Stream size                      : 1.14 GiB (80%)
Writing library                  : XviD 1.2.1 (UTC 2008-12-04)

Audio
ID                               : 1
Format                           : AC-3
Format/Info                      : Audio Coding 3
Mode extension                   : CM (complete main)
Codec ID                         : 2000
Duration                         : 1h 46mn
Bit rate mode                    : Constant
Bit rate                         : 384 Kbps
Channel(s)                       : 6 channels
Channel positions                : Front: L C R, Side: L R, LFE
Sampling rate                    : 48.0 KHz
Bit depth                        : 16 bits
Compression mode                 : Lossy
Stream size                      : 293 MiB (20%)
Alignment                        : Split accross interleaves
Interleave, duration             : 42 ms (1.00 video frame)
Interleave, preload duration     : 500 ms

--------------------------------------------

More at   
http://publichash.com/

--------------------------------------------		
Promised Land 2012 BRRip XviD AC3-SANTi/Torrent downloaded from unhide-torrents.org.NFO 28 B
Promised Land 2012 BRRip XviD AC3-SANTi/santi-promisedland.brrip.xvid.avi 1.536 GB
Promised Land 2012 BRRip XviD AC3-SANTi/santi-promisedland.brrip.xvid.srt 77.534 KB
Gathering some info...

Register and log in Isohunt and see no captcha anymore!

4000 symbols left
Hash a6cca3b031a94c1455043048d0bd9f239603fdac

Related torrents for "Promised Land 2012 BRRip XviD AC3-SANTi"

Torrent search:

2012 bd