Harry Potter and the Deathly Hallows Part 22011.ENGSUB.DVDRip.XviD-CrilleKex

Size 718.412 MB   0 seeders     Added 2011-07-29 22:40:03

Stream torrent
Starting‥ You need BitLord! Get it from BitLord.com
To download or stream you need BitLord. Visit them at BitLord.com
Harry Potter and the Deathly Hallows: Part 2 (2011)
PG_13  130 min  -  Adventure | Drama | Fantasy   -  14 July 2011 (Philippines)
    8.6/10  
Users: (45,851 votes) 424 reviews | Critics: 243 reviews Metascore: 87/100 (based on 41 reviews from Metacritic.com)

Harry, Ron and Hermione search for Voldemort's remaining Horcruxes in their effort to destroy the Dark Lord once and for all.

Director:
David Yates
Writers:
Steve Kloves (screenplay), J.K. Rowling (novel)
Stars:
Daniel Radcliffe, Emma Watson and Rupert Grint 
--------------------------------------------------------------

Quality details:

--------------------

Audio.....: English
Subtitles.: None
Format                           : AVI
Format/Info                      : Audio Video Interleave
File size                        : 690 MiB
Duration                         : 2h 5mn
Overall bit rate                 : 1 431 Kbps
Writing library                  : MPlayer


Video
ID                               : 0
Format                           : MPEG-4 Visual
Format profile                   : Advanced Simple@L5
Format settings, BVOP            : Yes
Format settings, QPel            : No
Format settings, GMC             : No warppoints
Format settings, Matrix          : Custom
Codec ID                         : XVID
Codec ID/Hint                    : XviD
Duration                         : 2h 5mn
Bit rate                         : 1 298 Kbps
Width                            : 680 pixels
Height                           : 372 pixels
Display aspect ratio             : 16:9
Frame rate                       : 25.000 fps
Color space                      : YUV
Chroma subsampling               : 4:2:0
Bit depth                        : 8 bits
Scan type                        : Progressive
Bits/(Pixel*Frame)               : 0.205
Stream size                      : 810 MiB (91%)
Writing library                  : XviD 1.2.1 (UTC 2008-12-04)

-------------------------------------

Audio
ID                               : 1
Format                           : AC-3
Format/Info                      : Audio Coding 3
Mode extension                   : CM (complete main)
Codec ID                         : 2000
Duration                         : 2h 5mn
Bit rate mode                    : Constant
Bit rate                         : 128 Kbps
Channel(s)                       : 2 channels
Channel positions                : Front: L R
Sampling rate                    : 48.0 KHz
Bit depth                        : 16 bits
Stream size                      : 79.8 MiB (9%)
Alignment                        : Aligned on interleaves
Interleave, duration             : 480 ms (12.00 video frames)
Interleave, preload duration     : 960 ms
Harry Potter and the Deathly Hallows Part 22011.ENGSUB.DVDRip.XviD-CrilleKex.avi 718.411 MB
northernwarriors.net.txt 137 B
Torrent downloaded from Demonoid.me.txt 46 B
Gathering some info...

Register and log in Isohunt and see no captcha anymore!

4000 symbols left
Hash 8EEC2A60F53CCFEB4E1CA93821AE548BF9BC82C2

Related torrents for "Harry Potter and the Deathly Hallows Part 22011.ENGSUB.DVDRip.XviD-CrilleKex"

Torrent search:

dvdrip