Rise of the Planet of the Apes2011.ENGSUB.DVDRip.XviD-CrilleKex

Size 704.132 MB   0 seeders     Added 2011-07-29 23:39:48

Stream torrent
Starting‥ You need BitLord! Get it from 1BitLord.com
To download or stream you need BitLord. Visit them at BitLord.com
Rise of the Planet of the Apes (2011)
PG_13  Action | Drama | Sci-Fi   -  5 August 2011 (USA)
    -/10  
(awaiting 5 votes) 1 review

An origin story set in present day San Francisco, where man's own experiments with genetic engineering lead to the development of intelligence in apes and the onset of a war for supremacy.

Director:
Rupert Wyatt
Writers:
Pierre Boulle (suggested by novel "La planete des singes"), Rick Jaffa, and 1 more credit »
Stars:
James Franco, Andy Serkis and Freida Pinto 

--------------------------------------------------------------

Quality details:

--------------------

Audio.....: English
Subtitles.: None
Format                           : AVI
Format/Info                      : Audio Video Interleave
File size                        : 690 MiB
Duration                         : 2h 5mn
Overall bit rate                 : 1 431 Kbps
Writing library                  : MPlayer


Video
ID                               : 0
Format                           : MPEG-4 Visual
Format profile                   : Advanced Simple@L5
Format settings, BVOP            : Yes
Format settings, QPel            : No
Format settings, GMC             : No warppoints
Format settings, Matrix          : Custom
Codec ID                         : XVID
Codec ID/Hint                    : XviD
Duration                         : 2h 5mn
Bit rate                         : 1 298 Kbps
Width                            : 680 pixels
Height                           : 372 pixels
Display aspect ratio             : 16:9
Frame rate                       : 25.000 fps
Color space                      : YUV
Chroma subsampling               : 4:2:0
Bit depth                        : 8 bits
Scan type                        : Progressive
Bits/(Pixel*Frame)               : 0.205
Stream size                      : 810 MiB (91%)
Writing library                  : XviD 1.2.1 (UTC 2008-12-04)

-------------------------------------

Audio
ID                               : 1
Format                           : AC-3
Format/Info                      : Audio Coding 3
Mode extension                   : CM (complete main)
Codec ID                         : 2000
Duration                         : 2h 5mn
Bit rate mode                    : Constant
Bit rate                         : 128 Kbps
Channel(s)                       : 2 channels
Channel positions                : Front: L R
Sampling rate                    : 48.0 KHz
Bit depth                        : 16 bits
Stream size                      : 79.8 MiB (9%)
Alignment                        : Aligned on interleaves
Interleave, duration             : 480 ms (12.00 video frames)
Interleave, preload duration     : 960 ms

----------------------------------------------------




northernwarriors.net.txt 137 B
Rise of the Planet of the Apes2011.ENGSUB.DVDRip.XviD-CrilleKex.avi 704.131 MB
Torrent downloaded from Demonoid.me.txt 46 B
Gathering some info...

Register and log in Isohunt and see no captcha anymore!

4000 symbols left
Hash AF86782509606B1D5B8CD14D5164C40D0BAEA248

Related torrents for "Rise of the Planet of the Apes2011.ENGSUB.DVDRip.XviD-CrilleKex"

Torrent search:

dvdrip