imdb
rating

5.5
The Smurfs

The Smurfs (2011)

Adventure, Animation, Comedy, Fantasy, Family

Full description
quality   cam hd fullhd x264 telesync

The Smurfs (eng) 2011 DivX-LBR

Size 717.392 MB   0 seeders     Added 2011-07-30 15:34:40

Stream torrent
Starting‥ You need BitLord! Get it from BitLord.com
To download or stream you need BitLord. Visit them at BitLord.com
The Smurfs (2011)
PG  86 min  -  Animation | Comedy | Family   -  29 July 2011 (USA)
    -/10  
(awaiting 5 votes) 1 review

When the evil wizard Gargamel chases the tiny blue Smurfs out of their village, they tumble from their magical world and into ours.

Director:
Raja Gosnell
Writers:
Peyo (characters), J. David Stem (screenplay), and 5 more credits »
Stars:
Hank Azaria, Katy Perry and Jonathan Winters 
--------------------------------------------------------------

Quality details:

--------------------

Audio.....: English
Subtitles.: None
Format                           : AVI
Format/Info                      : Audio Video Interleave
File size                        : 690 MiB
Duration                         : 2h 5mn
Overall bit rate                 : 1 431 Kbps
Writing library                  : MPlayer


Video
ID                               : 0
Format                           : MPEG-4 Visual
Format profile                   : Advanced Simple@L5
Format settings, BVOP            : Yes
Format settings, QPel            : No
Format settings, GMC             : No warppoints
Format settings, Matrix          : Custom
Codec ID                         : XVID
Codec ID/Hint                    : XviD
Duration                         : 2h 5mn
Bit rate                         : 1 298 Kbps
Width                            : 680 pixels
Height                           : 372 pixels
Display aspect ratio             : 16:9
Frame rate                       : 25.000 fps
Color space                      : YUV
Chroma subsampling               : 4:2:0
Bit depth                        : 8 bits
Scan type                        : Progressive
Bits/(Pixel*Frame)               : 0.205
Stream size                      : 810 MiB (91%)
Writing library                  : XviD 1.2.1 (UTC 2008-12-04)

-------------------------------------

Audio
ID                               : 1
Format                           : AC-3
Format/Info                      : Audio Coding 3
Mode extension                   : CM (complete main)
Codec ID                         : 2000
Duration                         : 2h 5mn
Bit rate mode                    : Constant
Bit rate                         : 128 Kbps
Channel(s)                       : 2 channels
Channel positions                : Front: L R
Sampling rate                    : 48.0 KHz
Bit depth                        : 16 bits
Stream size                      : 79.8 MiB (9%)
Alignment                        : Aligned on interleaves
Interleave, duration             : 480 ms (12.00 video frames)
Interleave, preload duration     : 960 ms
Torrent downloaded from Demonoid.me.txt 46 B
Transformers Dark of the Moon (2011) DVDRip XviD-MAX.avi 717.392 MB
Gathering some info...

Register and log in Isohunt and see no captcha anymore!

4000 symbols left
Hash BEE4718EC89D1E3FAF054AE1D6CA1E4784B08869

Related torrents for "The Smurfs (eng) 2011 DivX-LBR"

Torrent search:

english 2011