imdb
rating

7.8
X-Men: First Class

X-Men: First Class (2011)

Action, Adventure, Science Fiction

Full description
quality   dvdrip telesync dvd

X-Men First Class (2011) DVDSCR XviD-MAX

Size 713.311 MB   2 seeders     Added 2011-07-30 15:38:13

Stream torrent
Starting‥ You need BitLord! Get it from 1BitLord.com
To download or stream you need BitLord. Visit them at BitLord.com
X-Men: First Class (2011)
PG_13  132 min  -  Action | Adventure | Drama   -  2 June 2011 (Philippines)
    8.0/10  
Users: (69,957 votes) 460 reviews | Critics: 324 reviews Metascore: 65/100 (based on 38 reviews from Metacritic.com)

In 1962, Charles Xavier starts up a school and later a team, for humans with superhuman abilities. Among them is Erik Lensherr, his best friend... and future archenemy.

Director:
Matthew Vaughn
Writers:
Ashley Miller (screenplay), Zack Stentz (screenplay), and 4 more credits »
Stars:
James McAvoy, Michael Fassbender and Jennifer Lawrence

--------------------------------------------------------------

Quality details:

--------------------

Audio.....: English
Subtitles.: None
Format                           : AVI
Format/Info                      : Audio Video Interleave
File size                        : 690 MiB
Duration                         : 2h 5mn
Overall bit rate                 : 1 431 Kbps
Writing library                  : MPlayer


Video
ID                               : 0
Format                           : MPEG-4 Visual
Format profile                   : Advanced Simple@L5
Format settings, BVOP            : Yes
Format settings, QPel            : No
Format settings, GMC             : No warppoints
Format settings, Matrix          : Custom
Codec ID                         : XVID
Codec ID/Hint                    : XviD
Duration                         : 2h 5mn
Bit rate                         : 1 298 Kbps
Width                            : 680 pixels
Height                           : 372 pixels
Display aspect ratio             : 16:9
Frame rate                       : 25.000 fps
Color space                      : YUV
Chroma subsampling               : 4:2:0
Bit depth                        : 8 bits
Scan type                        : Progressive
Bits/(Pixel*Frame)               : 0.205
Stream size                      : 810 MiB (91%)
Writing library                  : XviD 1.2.1 (UTC 2008-12-04)

-------------------------------------

Audio
ID                               : 1
Format                           : AC-3
Format/Info                      : Audio Coding 3
Mode extension                   : CM (complete main)
Codec ID                         : 2000
Duration                         : 2h 5mn
Bit rate mode                    : Constant
Bit rate                         : 128 Kbps
Channel(s)                       : 2 channels
Channel positions                : Front: L R
Sampling rate                    : 48.0 KHz
Bit depth                        : 16 bits
Stream size                      : 79.8 MiB (9%)
Alignment                        : Aligned on interleaves
Interleave, duration             : 480 ms (12.00 video frames)
Interleave, preload duration     : 960 ms
Torrent downloaded from Demonoid.me.txt 46 B
X-Men First Class (2011) DVDSCR XviD-MAX.avi 713.311 MB
Gathering some info...

Register and log in Isohunt and see no captcha anymore!

4000 symbols left
Hash 5B5248BCAD939748BBE593E05F180B71A825CFDB

Related torrents for "X-Men First Class (2011) DVDSCR XviD-MAX"

Torrent search:

screener 2011