Bad Teacher( 2011 ) DVDRiP XViD -MAX

Size 720.467 MB   0 seeders     Added 2011-08-14 11:32:04

Stream torrent
Starting‥ You need BitLord! Get it from BitLord.com
To download or stream you need BitLord. Visit them at BitLord.com
$Bad Teacher

A comedy centered around a foul-mouthed, junior high teacher who, after being dumped by her sugar daddy, begins to woo a colleague -- a move that pits her against a well-loved teacher.
--------------------------------------------------------------

How come you press harder on a remote control when you know the battery is dead? so you better seed to get speed ;)

Seed back for speed


...................................NFO:.................................................

::: ::: ::::: ::: ::: ::::: ::: ::: ::: :::::
::: ::: :::::::::: ::: ::::::: ::::: ::: ::: :::::::
::: ::::::::::::::::::::::::::: ::: ::: ::: ::: :::::::::
::: ::: :::::::::::: :::::: ::: ::: ::: ::: ::::::
::: ::: ::: :::::::::: ::: ::: ::: ::: ::: ::: ::: :::
::: ::: ::: ::::::::: ::: ::: ::: ::: ::: : ::: ::: :::
::: ::: ::: :::::::::: ::: ::: ::: ::: ::: ::: ::: ::: :::
::: ::: ::: :::::::::::: ::: ::: ::: ::: : : ::: ::: :::
:::..::: ::: :::::: :::::: ::: ::: ::: ::::: ::::: ::: :::
::::::::: :::::: :::::: ::: ::::: ::::: ::::: ::: :::
:::: ::: :::::: :::::: ::: ::: :::: :::: ::: :::


NOTES

NOTES



Encoded By .......:UnKnOwN
Runtime ..........:1:42
Language .........:English
File Size ........:941mb
Release Date ......... 2011
File Type ......... Single AVI
PS3 Compatible ....... Who cares



Video
ID : 0
Format : MPEG-4 Visual
Format profile : Advanced Simple@L5
Format settings, BVOP : Yes
Format settings, QPel : No
Format settings, GMC : No warppoints
Format settings, Matrix : Custom
Codec ID : XVID
Codec ID/Hint : XviD
Duration : 1h 42mn
Bit rate : 1 197 Kbps
Width : 680pixels
Height : 272 pixels
Display aspect ratio : 2.500
Frame rate : 25.000 fps
Color space : YUV
Chroma subsampling : 4:2:0
Bit depth : 8 bits
Scan type : Progressive
Bits/(Pixel*Frame) : 0.234
Stream size : 892 MiB (86%)
Writing library : XviD 1.2.1 (UTC 2008-12-04)


Audio
ID : 1
Format : MPEG Audio
Format/Info : Version 1
Mode extension : Layer 3
Codec ID : Joint stereo
Duration : 1h 42mn
Bit rate mode : Constant
Bit rate : 128 Kbps
Channel(s) : 2 channels
Channel positions : 2 channels
Sampling rate : 44.1 KHz
Bit depth : 16 bits
Stream size : 302 MiB
Alignment : Aligned on interleaves
Interleave, duration : 42 ms (1.00 video frame)
Interleave, preload duration : 512 ms




SYSPNOSIS:

A comedy centered around a foul-mouthed, junior high teacher who, after being dumped
by her sugar daddy, begins to woo a colleague -- a move that
pits her against a well-loved teacher.



GREETZ & RESPECT

NOBODY YET WILL LET YOU KNOW

MORE GOODIES COMING REAL SOON



Bad Teacher( 2011 ) DVDRiP XViD -MAX.avi 720.451 MB
Budget seedboxs.txt 44 B
dreamthe.net.txt 91 B
Gathering some info...

Register and log in Isohunt and see no captcha anymore!

4000 symbols left
Hash 9DD2C29A495ADF4D09685FD2E1E12A1A93A8AD1D