imdb
rating

5.3
Glee: The Concert Movie

Glee: The Concert Movie (2011)

Documentary, Music, Family

Full description
quality   dvdrip bd ppvr

Glee The 3D Concert 2011 BRRiP XviD AbSurdiTy

Size 721.587 MB   0 seeders     Added 2011-08-20 22:50:19

Stream torrent
Starting‥ You need BitLord! Get it from BitLord.com
To download or stream you need BitLord. Visit them at BitLord.com
[img]image[/img]


Glee The 3D Concert Movie 2011      

                			
Director: KEVIN TANCHAROEN
Genres: Musical| Drama
Country: USA

	
Casts: 

DIANNA AGRON, CHRIS COLFER, DARREN CRISS, KEVIN McHALE, LEA MICHELE, CORY MONTEITH, HEATHER MORRIS, AMBER RILEY, NAYA RIVERA, MARK SALLING, JENNA USHKOWITZ, HARRY SHUM, JR., CHORD OVERSTREET, ASHLEY FINK, and JANE LYNCH

Produced By:

RYAN MURPHY, DANTE DI LORETO. Executive Producers: DAVID NICKSAY, IAN BRENNAN, BRAD FALCHUK. Executive Music Producers: RYAN MURPHY and ADAM ANDERS. Music Supervisor: PJ BLOOM
Plot: 

The multi-generational phenomenon that has inspired millions to embrace their inner-Gleek will soon bring them together to experience Glee a whole new way
                                              Video Codec.......: XViD                 Audio Codec.......: MP3                  Audio Bitrate.....: 128                  Subtitles.........: NIL                  
IMDB Rating.......: N/A
Release Date......: 08/08/11
Theatre Date......: 08/08/11
Runtime...........: 100 MNS 
Language..........: ENGLISH
Video

ID                               : 0
Format                           : MPEG-4 Visual
Format profile                   : Advanced Simple@L5
Format settings, BVOP            : 2
Format settings, QPel            : No
Format settings, GMC             : No warppoints
Format settings, Matrix          : Default (MPEG)
Muxing mode                      : Packed bitstream
Codec ID                         : XVID
Codec ID/Hint                    : XviD
Duration                         : 100 MNS
Bit rate                         : 2 335 Kbps
Width                            : 640 pixels
Height                           : 300 pixels
Display aspect ratio             : 2.35:1
Frame rate                       : 25.000 fps
Color space                      : YUV
Chroma subsampling               : 4:2:0
Bit depth                        : 8 bits
Scan type                        : Progressive
Compression mode                 : Lossy
Bits/(Pixel*Frame)               : 0.427
Stream size                      : 2.29 GiB (94%)
Writing library                  : XviD 64

Audio
ID                               : 1
Format                           : MPEG Audio
Format version                   : Version 1
Format profile                   : Layer 3
Mode                             : Joint stereo
Mode extension                   : MS Stereo
Codec ID                         : 55
Codec ID/Hint                    : MP3
Duration                         : 100 MNS 
Bit rate mode                    : Constant
Bit rate                         : 128 Kbps
Channel(s)                       : 2 channels
Sampling rate                    : 44.1 KHz
Compression mode                 : Lossy
Stream size                      : 129 MiB (5%)
Alignment                        : Split accross interleaves
Interleave, duration             : 40 ms (1.00 video frame)
Interleave, preload duration     : 500 ms
Writing library                  : LAME3.98r        


[img]image[/img]     
[img]image[/img]   
[img]image[/img]      
[img]image[/img]         
Glee The 3D Concert 2011 BRRiP XviD AbSurdiTy.avi 713.929 MB
Sample.avi 7.657 MB
Torrent downloaded from Demonoid.com.txt 47 B
Gathering some info...

Register and log in Isohunt and see no captcha anymore!

4000 symbols left
Hash 5F138B68B5ABAD5C2AA31893148DF1F0678EC1B2

Related torrents for "Glee The 3D Concert 2011 BRRiP XviD AbSurdiTy"

Torrent search:

bd 2011